<?xml version="1.0" standalone="no"?>
<!DOCTYPE svg PUBLIC "-//W3C//DTD SVG 1.1//EN" "http://www.w3.org/Graphics/SVG/1.1/DTD/svg11.dtd" >
<svg xmlns="http://www.w3.org/2000/svg">
<metadata></metadata>
<defs>
<font id="museo_sans_rounded900" horiz-adv-x="1290" >
<font-face units-per-em="2048" ascent="1536" descent="-512" />
<missing-glyph horiz-adv-x="512" />
<glyph unicode="&#xfb01;" horiz-adv-x="1308" d="M37 891v51q0 113 113 113h26v32q0 69 19 127t49 97t71 69t82 47t85 28t76 14.5t60 3.5h35q113 0 113 -113v-76q0 -104 -113 -113q-19 -2 -31 -3.5t-31.5 -8t-31 -16.5t-20.5 -29t-9 -45v-14h562q112 0 112 -113v-829q0 -113 -112 -113h-129q-113 0 -113 113v665h-320 v-665q0 -113 -112 -113h-129q-113 0 -113 113v665h-26q-113 0 -113 113zM854 1300v52q0 112 113 112h120q113 0 113 -112v-52q0 -112 -113 -112h-120q-113 0 -113 112z" />
<glyph unicode="&#xfb02;" horiz-adv-x="1374" d="M37 872v52q0 112 113 112h26v51q0 69 19 127t49 97t71 69t82 47t85 28t76 14.5t60 3.5h35q113 0 113 -113v-76q0 -104 -113 -113q-19 -2 -31 -3.5t-31.5 -8t-31 -16.5t-20.5 -29t-9 -45v-33h82q113 0 113 -112v-52q0 -112 -113 -112h-82v-647q0 -113 -112 -113h-129 q-113 0 -113 113v647h-26q-113 0 -113 112zM846 389v963q0 112 112 112h129q113 0 113 -112v-946q0 -98 60 -105q81 -10 81 -96v-101q0 -114 -114 -114q-62 0 -110.5 7t-101.5 31.5t-88 66.5t-58 117t-23 177z" />
<glyph unicode="&#xfb03;" horiz-adv-x="2054" d="M37 891v51q0 113 113 113h16l10 32q0 69 19 127t49 97t71 69t82 47t85 28t76 14.5t60 3.5h35q113 0 113 -113v-76q0 -104 -113 -113q-19 -2 -31 -3.5t-31.5 -8t-31 -16.5t-20.5 -29t-9 -45v-14h392v32q0 69 19 127t49 97t71 69t82 47t85 28t76 14.5t60 3.5h35 q112 0 112 -113v-76q0 -55 -27.5 -81.5t-84.5 -31.5q-19 -2 -31 -3.5t-31.5 -8t-31 -16.5t-20.5 -29t-9 -45v-14h561q113 0 113 -113v-829q0 -113 -113 -113h-129q-113 0 -113 113v665h-319v-665q0 -113 -113 -113h-129q-112 0 -112 113v665h-392v-665q0 -113 -112 -113 h-129q-113 0 -113 113l-10 665h-16q-113 0 -113 113zM1599 1300v52q0 112 113 112h121q113 0 113 -112v-52q0 -112 -113 -112h-121q-113 0 -113 112z" />
<glyph unicode="&#xfb04;" horiz-adv-x="2119" d="M37 891v51q0 113 113 113h16l10 32q0 69 19 127t49 97t71 69t82 47t85 28t76 14.5t60 3.5h35q113 0 113 -113v-76q0 -104 -113 -113q-19 -2 -31 -3.5t-31.5 -8t-31 -16.5t-20.5 -29t-9 -45v-14h392v32q0 69 19 127t49 97t71 69t82 47t85 28t76 14.5t60 3.5h35 q112 0 112 -113v-76q0 -55 -27.5 -81.5t-84.5 -31.5q-19 -2 -31 -3.5t-31.5 -8t-31 -16.5t-20.5 -29t-9 -45v-14h82q112 0 112 -113v-51q0 -55 -25 -84t-71 -29h-98v-665q0 -113 -113 -113h-129q-112 0 -112 113v665h-392v-665q0 -113 -112 -113h-129q-113 0 -113 113 l-10 665h-16q-113 0 -113 113zM1591 389v963q0 112 113 112h129q113 0 113 -112v-946q0 -98 59 -105q82 -10 82 -96v-101q0 -114 -115 -114q-62 0 -110.5 7t-101.5 31.5t-88 66.5t-58 117t-23 177z" />
<glyph horiz-adv-x="2048" />
<glyph horiz-adv-x="2048" />
<glyph unicode="&#xd;" horiz-adv-x="2048" />
<glyph unicode=" "  horiz-adv-x="512" />
<glyph unicode="&#x09;" horiz-adv-x="512" />
<glyph unicode="&#xa0;" horiz-adv-x="512" />
<glyph unicode="!" horiz-adv-x="585" d="M113 1350q-3 114 110 114h139q56 0 84 -29.5t27 -84.5l-24 -787q-1 -54 -31 -82t-84 -28h-82q-54 0 -84 28t-31 82zM131 113v82q0 112 113 112h98q113 0 113 -112v-82q0 -113 -113 -113h-98q-113 0 -113 113z" />
<glyph unicode="&#x22;" horiz-adv-x="804" d="M82 1116v266q0 113 113 113h24q113 0 113 -113v-266q0 -112 -113 -112h-24q-113 0 -113 112zM473 1116v266q0 113 113 113h24q113 0 113 -113v-266q0 -112 -113 -112h-24q-113 0 -113 112z" />
<glyph unicode="#" horiz-adv-x="1406" d="M70 489l4 23q15 102 121 102h102l35 195h-80q-58 0 -84.5 32t-17.5 89l4 22q15 103 118 103h101l53 307q18 102 123 102h47q58 0 84.5 -32t17.5 -89l-51 -288h221l54 307q18 102 122 102h48q58 0 84.5 -32t17.5 -89l-51 -288h92q58 0 84.5 -32t17.5 -89l-4 -23 q-15 -102 -121 -102h-110l-35 -195h88q58 0 84.5 -31.5t17.5 -88.5l-4 -23q-15 -102 -120 -102h-107l-45 -267q-18 -102 -123 -102h-47q-58 0 -84.5 32t-17.5 89l43 248h-222l-45 -267q-18 -102 -123 -102h-47q-58 0 -84.5 32t-17.5 89l43 248h-84q-58 0 -84.5 31.5 t-17.5 88.5zM571 614h222l34 195h-221z" />
<glyph unicode="$" horiz-adv-x="1167" d="M78 1040q0 169 108.5 286.5t282.5 150.5v79q0 113 106 113h13q104 0 104 -92v-94q165 -17 293 -99q43 -26 51 -67t-16 -86l-49 -96q-49 -96 -154 -39q-109 63 -225 63q-63 0 -109.5 -29t-46.5 -86q0 -28 23 -52t61.5 -44t88.5 -40t105 -43t110 -49.5t105 -63.5 t88.5 -81.5t61.5 -106t23 -134.5q0 -168 -109.5 -292t-300.5 -154v-74q0 -113 -104 -113h-13q-106 0 -106 92v95q-186 28 -336 133q-42 29 -46.5 71t26.5 84l61 90q61 87 158 27q135 -84 258 -84q64 0 108.5 28t44.5 89q0 26 -22.5 49.5t-61 44t-88.5 41.5t-105.5 45.5 t-110.5 52.5t-105 66t-88.5 82.5t-61 105.5t-22.5 131z" />
<glyph unicode="%" horiz-adv-x="1742" d="M63 1135q0 146 108.5 250t262.5 104q153 0 262 -104.5t109 -249.5q0 -147 -108.5 -250t-262.5 -103q-155 0 -263 102.5t-108 250.5zM227.5 40q-19.5 40 24.5 97l973 1260q50 67 137 67h51q72 0 92 -40t-24 -97l-973 -1259q-51 -68 -137 -68h-52q-72 0 -91.5 40zM322 1137 q0 -45 33 -77t79 -32t79.5 32t33.5 77q0 43 -33.5 74.5t-79.5 31.5t-79 -31.5t-33 -74.5zM938 328q0 146 108.5 250t262.5 104q153 0 261.5 -104.5t108.5 -249.5q0 -148 -108 -250.5t-262 -102.5q-155 0 -263 102.5t-108 250.5zM1196 330q0 -45 33.5 -77t79.5 -32t79 32 t33 77q0 43 -33 74.5t-79 31.5t-79.5 -31.5t-33.5 -74.5z" />
<glyph unicode="&#x26;" horiz-adv-x="1359" d="M61 424q0 114 65 210.5t169 139.5v4q-7 3 -18.5 10t-41 33t-52.5 58.5t-41.5 90t-18.5 124.5q0 83 27 150.5t72.5 112t108 75t131.5 44t144 13.5h74q113 0 113 -113v-71q0 -113 -113 -113h-43q-76 0 -114 -45t-38 -107q0 -59 40 -100t110 -41h178v68q0 112 113 112h127 q112 0 112 -90v-90h70q113 0 113 -113v-81q0 -113 -113 -113h-70v-141q0 -99 -37.5 -185t-107 -151t-176.5 -102.5t-238 -37.5q-245 0 -395 128.5t-150 320.5zM428 446q0 -60 51.5 -102.5t126.5 -42.5q98 0 152.5 47.5t54.5 122.5v121h-201q-80 0 -132 -34.5t-52 -111.5z " />
<glyph unicode="'" horiz-adv-x="419" d="M82 1116v266q0 113 113 113h30q113 0 113 -113v-266q0 -112 -113 -112h-30q-113 0 -113 112z" />
<glyph unicode="(" horiz-adv-x="616" d="M66 711q0 394 206 749q43 76 136 76h51q66 0 87.5 -36.5t-7.5 -96.5q-160 -337 -160 -692q0 -394 168 -772q27 -60 4.5 -97t-86.5 -37h-57q-90 0 -127 68q-215 379 -215 838z" />
<glyph unicode=")" horiz-adv-x="616" d="M65.5 -156.5q-21.5 38.5 6.5 101.5q164 384 164 766q0 355 -160 692q-30 60 -10 96.5t84 36.5h57q92 0 135 -76q207 -356 207 -749q0 -453 -209 -830q-44 -76 -133 -76h-55q-65 0 -86.5 38.5z" />
<glyph unicode="*" horiz-adv-x="948" d="M74 1147l20 67q39 112 142 68l104 -47l-10 111q-6 57 21.5 87.5t84.5 30.5h74q57 0 84.5 -29.5t21.5 -84.5l-12 -115l103 45q109 48 145 -63l22 -68q17 -54 -2 -89.5t-73 -45.5l-115 -25v-4l76 -82q38 -41 33.5 -82.5t-50.5 -75.5l-57 -43q-46 -33 -86 -25t-68 56l-57 98 h-4l-53 -94q-29 -51 -69.5 -60t-86.5 25l-57 41q-46 34 -51 74.5t32 81.5l76 84v4l-108 23q-56 12 -77.5 47.5t-2.5 89.5z" />
<glyph unicode="+" d="M86 567v41q0 113 113 113h307v344q0 113 112 113h54q112 0 112 -113v-344h308q112 0 112 -113v-41q0 -112 -112 -112h-308v-342q0 -113 -112 -113h-54q-112 0 -112 113v342h-307q-113 0 -113 112z" />
<glyph unicode="," horiz-adv-x="524" d="M31 -100l92 344q26 96 127 96h96q63 0 88 -36.5t0 -94.5l-143 -348q-33 -88 -129 -88h-35q-62 0 -87.5 33.5t-8.5 93.5z" />
<glyph unicode="-" horiz-adv-x="843" d="M100 547v82q0 112 113 112h418q112 0 112 -112v-82q0 -113 -112 -113h-418q-113 0 -113 113z" />
<glyph unicode="." horiz-adv-x="516" d="M90 113v110q0 113 113 113h110q113 0 113 -113v-110q0 -113 -113 -113h-110q-113 0 -113 113z" />
<glyph unicode="/" horiz-adv-x="864" d="M63 41l453 1403q30 92 129 92h62q62 0 87.5 -34.5t6.5 -94.5l-453 -1401q-30 -92 -129 -92h-61q-62 0 -88 34.5t-7 92.5z" />
<glyph unicode="0" horiz-adv-x="1286" d="M92 735q0 131 17 240.5t57.5 206t102.5 163.5t157 105.5t217 38.5t217 -38.5t157 -105.5t102.5 -163.5t57.5 -206t17 -240.5t-17 -241t-57.5 -207.5t-102.5 -165.5t-157 -107t-217 -39t-217 39t-157 107t-102.5 165.5t-57.5 207.5t-17 241zM461 735q0 -432 182 -432 t182 432q0 426 -182 426t-182 -426z" />
<glyph unicode="1" horiz-adv-x="1081" d="M82 113v82q0 112 113 112h198v611l2 112h-4q-20 -45 -45 -65l-18 -17q-82 -76 -158 6l-53 58q-78 81 4 159l254 238q61 55 139 55h117q112 0 112 -112v-1045h201q113 0 113 -112v-82q0 -113 -113 -113h-749q-113 0 -113 113z" />
<glyph unicode="2" horiz-adv-x="1187" d="M74 113v45q0 110 35 205.5t90.5 163t123 125.5t135.5 103t123.5 84.5t90.5 82t35 84.5q0 71 -47 108t-111 37q-88 0 -156 -72q-87 -84 -160 -24l-79 63q-91 72 -29 152q168 219 457 219q74 0 144.5 -16.5t135 -52.5t113 -87.5t77.5 -127t29 -165.5q0 -93 -32.5 -174 t-85.5 -139t-116.5 -107.5t-128 -89.5t-118.5 -75t-89.5 -72.5t-39.5 -75.5h520q113 0 113 -112v-82q0 -113 -113 -113h-796q-54 0 -87.5 29.5t-33.5 83.5z" />
<glyph unicode="3" horiz-adv-x="1159" d="M86 256l55 90q56 90 154 29q110 -62 209 -62q97 0 153 42t56 104q0 83 -74 122.5t-199 39.5h-8q-49 0 -77 17t-50 60l-10 21q-38 71 27 145l133 162q31 37 63 71.5t48 50.5l16 15v4q-48 -10 -140 -10h-237q-113 0 -113 113v82q0 112 113 112h698q113 0 113 -110v-33 q0 -80 -51 -139l-246 -283q161 -35 257.5 -152t96.5 -272q0 -96 -34 -184t-99 -159.5t-171 -114t-239 -42.5q-233 0 -419 125q-85 61 -25 156z" />
<glyph unicode="4" horiz-adv-x="1275" d="M29 467v29q0 79 41 139l477 756q47 73 135 73h238q112 0 112 -112v-701h62q112 0 112 -112v-72q0 -113 -86 -113h-88v-241q0 -113 -112 -113h-129q-113 0 -113 113v241h-537q-112 0 -112 113zM393 651h285v328q0 36 3 77t6 64l3 23h-4q-31 -91 -72 -152l-221 -336v-4z " />
<glyph unicode="5" horiz-adv-x="1167" d="M83 172.5q-6 41.5 23 83.5l56 90q55 89 153 29q106 -62 205 -62q80 0 142.5 48t62.5 133q0 84 -65.5 133t-167.5 49q-58 0 -121 -19q-89 -26 -152 -2l-22 9q-93 38 -84 133l43 559q9 108 116 108h598q113 0 113 -112v-82q0 -113 -113 -113h-395l-8 -135q0 -13 -2 -27 t-4 -22l-2 -8h4q51 14 106 14q127 0 228.5 -38t165.5 -104t97.5 -152.5t33.5 -186.5q0 -228 -152.5 -375.5t-390.5 -147.5q-237 0 -420 127q-42 29 -48 70.5z" />
<glyph unicode="6" horiz-adv-x="1249" d="M82 664q0 127 29 247t87.5 225t141 183.5t196.5 124t246 45.5q124 0 219 -27q105 -31 70 -141l-31 -96q-18 -55 -47.5 -69.5t-83.5 -6.5q-70 12 -102 12q-242 0 -322 -262h4q29 27 88 49.5t144 22.5q105 0 192.5 -40t144 -107t87.5 -151.5t31 -176.5q0 -96 -34 -188 t-95.5 -166.5t-158.5 -120.5t-212 -46q-90 0 -175 27t-161.5 83.5t-133.5 136.5t-90.5 194t-33.5 248zM451 573q0 -94 68.5 -182t158.5 -88q63 0 104 47.5t41 122.5q0 39 -12 74.5t-38.5 66.5t-74.5 49.5t-112 18.5q-65 0 -100 -23.5t-35 -85.5z" />
<glyph unicode="7" horiz-adv-x="1118" d="M43 1270v82q0 112 113 112h825q113 0 113 -112v-64q0 -77 -33 -139l-541 -1067q-42 -82 -133 -82h-133q-66 0 -88.5 37t6.5 96l451 893q23 44 44.5 77.5t31.5 44.5l10 11v4q-12 -6 -86 -6h-467q-113 0 -113 113z" />
<glyph unicode="8" horiz-adv-x="1257" d="M80 418q0 199 211 364q-154 121 -154 289q0 79 30 152t88 133.5t154 96.5t216 36q142 0 257 -48.5t183 -142t68 -217.5q0 -178 -152 -346q190 -120 190 -317q0 -83 -35 -161t-100.5 -141.5t-171.5 -102t-237 -38.5q-129 0 -235.5 38t-173 101.5t-102.5 141.5t-36 162z M438 459q0 -77 53 -126.5t140 -49.5q76 0 125 40t49 107q0 32 -14.5 56.5t-49 47t-73 41t-106.5 47.5q-26 11 -40 17q-84 -89 -84 -180zM487 1063q0 -68 58 -110.5t188 -94.5q53 83 53 176q0 72 -41 110t-116 38q-72 0 -107 -32.5t-35 -86.5z" />
<glyph unicode="9" horiz-adv-x="1249" d="M74 981q0 95 34 185.5t95.5 162.5t157.5 116t210 44t219 -43.5t190 -126.5t136 -217t51 -301q0 -126 -28.5 -245.5t-87 -225t-140.5 -184.5t-196.5 -125t-247.5 -46q-125 0 -219 27q-105 31 -70 141l31 97q18 55 47.5 69t83.5 6q70 -12 102 -12q242 0 322 262h-4 q-28 -28 -94.5 -49.5t-143.5 -21.5q-100 0 -185.5 41t-142 109.5t-88.5 156t-32 180.5zM426 991q0 -39 12.5 -74.5t38.5 -66.5t74 -49.5t113 -18.5t100 23.5t35 85.5q0 94 -69 182t-159 88q-63 0 -104 -47.5t-41 -122.5z" />
<glyph unicode=":" horiz-adv-x="542" d="M104 113v110q0 113 113 113h111q112 0 112 -113v-110q0 -113 -112 -113h-111q-113 0 -113 113zM104 831v111q0 113 113 113h111q112 0 112 -113v-111q0 -112 -112 -112h-111q-113 0 -113 112z" />
<glyph unicode=";" horiz-adv-x="573" d="M39 -102l82 344q21 98 123 98h100q63 0 88 -35.5t2 -93.5l-129 -348q-34 -90 -129 -90h-39q-59 0 -85 33.5t-13 91.5zM154 831v111q0 113 112 113h99q112 0 112 -113v-111q0 -112 -112 -112h-99q-112 0 -112 112z" />
<glyph unicode="&#x3c;" d="M104 573v31q0 95 86 131l816 361q58 26 94.5 2.5t36.5 -86.5v-60q0 -92 -88 -129l-588 -233v-4l588 -232q88 -37 88 -129v-59q0 -64 -36.5 -87.5t-94.5 1.5l-816 362q-86 36 -86 131z" />
<glyph unicode="=" d="M127 332v41q0 112 113 112h811q112 0 112 -112v-41q0 -113 -112 -113h-811q-113 0 -113 113zM127 803v41q0 112 113 112h811q112 0 112 -112v-41q0 -113 -112 -113h-811q-113 0 -113 113z" />
<glyph unicode="&#x3e;" d="M154 166v59q0 92 88 129l587 232v4l-587 233q-88 37 -88 129v60q0 64 36 87.5t95 -1.5l815 -363q86 -36 86 -131v-31q0 -95 -86 -131l-815 -360q-59 -26 -95 -2.5t-36 86.5z" />
<glyph unicode="?" horiz-adv-x="999" d="M92 1245q-66 95 19 150q153 100 340 100q70 0 137.5 -16t129 -49.5t108.5 -80t74.5 -112.5t27.5 -143q0 -63 -17 -119t-45 -97t-62.5 -77.5t-70.5 -67t-67 -58.5t-54.5 -60t-31.5 -64l-7 -25q-10 -41 -34 -57t-72 -16h-117q-112 0 -112 112v21q0 44 17.5 85.5t46 74.5 t62.5 64.5t68.5 60.5t63 57t46 60.5t17.5 64.5q0 52 -42.5 86.5t-102.5 34.5q-47 0 -107 -29q-46 -25 -92 -20t-74 46zM246 113v82q0 112 112 112h99q112 0 112 -112v-82q0 -113 -112 -113h-99q-112 0 -112 113z" />
<glyph unicode="@" horiz-adv-x="1712" d="M78 489q0 160 61.5 302.5t167.5 245.5t256 163t320 60q132 0 237 -26t174 -70.5t114.5 -107.5t65 -134t19.5 -154v-406h39q113 0 113 -112v-19q0 -112 -113 -112h-467q-111 0 -201.5 32t-147 85t-86.5 119t-30 137q0 69 29.5 132.5t85 115t146.5 82t204 30.5h100 q0 61 -85 96t-191 35q-97 0 -184.5 -42.5t-148.5 -111.5t-96.5 -158.5t-35.5 -181.5q0 -179 107 -313.5t300 -167.5q54 -9 81.5 -37t27.5 -80v-43q0 -56 -30.5 -85t-86.5 -23q-172 17 -313 81t-235 163.5t-145.5 229t-51.5 275.5zM950 500q0 -60 35 -99t100 -39h80v275h-75 q-67 0 -103.5 -39t-36.5 -98z" />
<glyph unicode="A" horiz-adv-x="1339" d="M27 129l424 1243q29 92 127 92h184q98 0 127 -92l424 -1243q9 -26 9 -47q0 -26 -14 -46q-25 -36 -87 -36h-136q-97 0 -127 94l-61 213h-457l-61 -213q-27 -94 -125 -94h-135q-62 0 -87 36q-14 20 -14 46q0 21 9 47zM524 594h289l-82 285q-12 41 -26.5 103.5t-23.5 105.5 l-9 42h-4q-33 -159 -60 -251z" />
<glyph unicode="B" horiz-adv-x="1298" d="M141 113v1239q0 112 113 112h426q226 0 362 -99.5t136 -283.5q0 -95 -44.5 -180t-125.5 -131v-4q80 -24 133.5 -79.5t74.5 -118.5t21 -132q0 -93 -30 -167.5t-82 -124t-123.5 -82.5t-151.5 -47.5t-170 -14.5h-426q-113 0 -113 113zM500 307h215q74 0 114.5 44t40.5 110 q0 65 -39 107t-114 42h-217v-303zM500 897h184q64 0 96.5 39t32.5 96q0 55 -33.5 90t-101.5 35h-178v-260z" />
<glyph unicode="C" horiz-adv-x="1431" d="M66 735q0 158 57 297t157 240t243.5 159t310.5 58q266 0 469 -139q49 -35 49 -82q0 -34 -25 -74l-51 -84q-34 -55 -83 -55q-32 0 -71 24q-143 82 -272 82q-106 0 -187.5 -35t-130 -95t-72.5 -133t-24 -155q0 -84 25.5 -161t74.5 -140t130.5 -101t183.5 -38q149 0 299 105 q41 29 77 29q46 0 81 -50l57 -80q28 -41 28 -76q0 -45 -46 -81q-224 -175 -512 -175q-173 0 -318 58t-243 159.5t-152.5 241t-54.5 301.5z" />
<glyph unicode="D" horiz-adv-x="1486" d="M141 113v1239q0 112 113 112h408q349 0 552 -193t203 -536q0 -344 -203.5 -539.5t-551.5 -195.5h-408q-113 0 -113 113zM500 307h147q189 0 294.5 110t105.5 318q0 205 -107 313.5t-293 108.5h-147v-850z" />
<glyph unicode="E" horiz-adv-x="1146" d="M141 113v1239q0 112 113 112h692q113 0 113 -112v-82q0 -113 -113 -113h-446v-266h334q112 0 112 -113v-82q0 -112 -112 -112h-334v-277h475q112 0 112 -112v-82q0 -113 -112 -113h-721q-113 0 -113 113z" />
<glyph unicode="F" horiz-adv-x="1073" d="M141 113v1239q0 112 113 112h672q112 0 112 -112v-82q0 -113 -112 -113h-426v-307h334q112 0 112 -113v-82q0 -112 -112 -112h-334v-430q0 -113 -113 -113h-133q-113 0 -113 113z" />
<glyph unicode="G" horiz-adv-x="1554" d="M66 723q0 165 57.5 307.5t158.5 243t244.5 158t309.5 57.5q155 0 284.5 -42.5t190.5 -86.5q51 -38 51 -86q0 -33 -23 -70l-53 -84q-29 -45 -68 -51q-6 -1 -14 -1q-33 0 -74 22q-43 22 -74 35t-85 24.5t-113 11.5q-106 0 -189 -34t-132.5 -92.5t-75 -132.5t-25.5 -159 q0 -99 33.5 -182.5t90.5 -139.5t132.5 -87t159.5 -31q59 0 111.5 12.5t85.5 30t58 34.5t35 30l11 12v100h-94q-113 0 -113 113v80q0 112 113 112h299q112 0 112 -112v-602q0 -113 -112 -113h-68q-53 0 -82.5 25t-29.5 63v4l2 21h-4q-5 -6 -15.5 -15t-47 -33t-78 -42 t-109 -33t-140.5 -15q-142 0 -272 53t-229.5 147.5t-159 237t-59.5 310.5z" />
<glyph unicode="H" horiz-adv-x="1531" d="M141 113v1239q0 112 113 112h133q113 0 113 -112v-473h532v473q0 112 113 112h133q113 0 113 -112v-1239q0 -113 -113 -113h-133q-113 0 -113 113v460h-532v-460q0 -113 -113 -113h-133q-113 0 -113 113z" />
<glyph unicode="I" horiz-adv-x="641" d="M141 113v1239q0 112 113 112h133q113 0 113 -112v-1239q0 -113 -113 -113h-133q-113 0 -113 113z" />
<glyph unicode="J" horiz-adv-x="1136" d="M27 444q0 113 112 113h137q55 0 79 -24t30 -80q7 -64 40 -107t93 -43q61 0 96 39.5t35 116.5v698h-280q-113 0 -113 113v82q0 112 113 112h526q113 0 113 -112v-901q0 -116 -42 -209.5t-112 -150t-156 -86.5t-180 -30t-181.5 31t-157 88t-111 148t-41.5 202z" />
<glyph unicode="K" horiz-adv-x="1359" d="M141 113v1239q0 112 113 112h133q113 0 113 -112v-453h147l260 485q45 80 133 80h140q68 0 90 -38q9 -16 9 -35q0 -27 -19 -62l-320 -565v-4l344 -625q19 -35 19 -62q1 -19 -9 -35q-22 -38 -90 -38h-157q-89 0 -134 80l-266 514h-147v-481q0 -113 -113 -113h-133 q-113 0 -113 113z" />
<glyph unicode="L" horiz-adv-x="1103" d="M141 113v1239q0 112 113 112h133q113 0 113 -112v-1045h485q113 0 113 -112v-82q0 -113 -113 -113h-731q-113 0 -113 113z" />
<glyph unicode="M" horiz-adv-x="1771" d="M98 117l103 1239q9 108 116 108h185q98 0 127 -92l182 -526q15 -42 33.5 -102.5t29.5 -99.5l11 -40h4q41 148 74 242l182 526q29 92 127 92h184q108 0 117 -108l100 -1239q1 -8 1 -16q0 -45 -24 -71q-28 -30 -83 -30h-133q-108 0 -117 109l-37 550q-4 49 -4 110.5t2 98.5 l2 37h-4q-49 -154 -82 -246l-121 -333q-34 -90 -129 -90h-115q-95 0 -129 90l-120 333l-82 246h-4q4 -68 4 -129.5t-4 -116.5l-37 -550q-9 -109 -117 -109h-135q-55 0 -83 30q-24 26 -25 71q0 8 1 16z" />
<glyph unicode="N" horiz-adv-x="1519" d="M141 113v1239q0 112 113 112h160q91 0 135 -75l360 -609q25 -43 56 -105.5t49 -103.5l18 -41h4q-16 158 -16 250v572q0 112 113 112h133q112 0 112 -112v-1239q0 -113 -112 -113h-160q-89 0 -133 76l-363 606q-25 43 -56 105.5t-49 103.5l-18 41h-4q17 -158 17 -250v-569 q0 -113 -113 -113h-133q-113 0 -113 113z" />
<glyph unicode="O" horiz-adv-x="1662" d="M66 741q0 156 56 294t155 238t243 158t311 58t311 -58t243 -158t155.5 -238t56.5 -294q0 -160 -56.5 -301t-155.5 -243.5t-243 -162t-311 -59.5q-223 0 -398.5 101.5t-271 276t-95.5 388.5zM436 741q0 -189 111.5 -313.5t283.5 -124.5t284 125t112 313q0 181 -112 300.5 t-284 119.5t-283.5 -119.5t-111.5 -300.5z" />
<glyph unicode="P" horiz-adv-x="1261" d="M141 113v1239q0 112 113 112h496q213 0 345 -140.5t132 -362.5q0 -223 -132.5 -365.5t-344.5 -142.5h-250v-340q0 -113 -113 -113h-133q-113 0 -113 113zM500 760h176q91 0 138.5 55t47.5 146q0 90 -46.5 143t-133.5 53h-182v-397z" />
<glyph unicode="Q" horiz-adv-x="1660" d="M66 741q0 156 56 294t155 238t243 158t311 58t310.5 -58t243 -158t156 -238t56.5 -294q0 -227 -145 -434l64 -51q43 -35 47 -77v-8q0 -38 -33 -75l-51 -57q-42 -45 -82 -45q-35 0 -68 33l-76 69q-185 -121 -422 -121q-223 0 -398.5 101.5t-271 276t-95.5 388.5zM436 741 q0 -189 111.5 -313.5t283.5 -124.5q95 0 160 33l-65 57q-44 40 -44 82q0 37 33 76l52 57q43 48 84 48q33 0 65 -31l72 -72q39 89 39 188q0 180 -113.5 300t-282.5 120q-172 0 -283.5 -119.5t-111.5 -300.5z" />
<glyph unicode="R" horiz-adv-x="1310" d="M141 113v1239q0 112 113 112h397q199 0 285 -34q127 -48 198.5 -158.5t71.5 -267.5q0 -124 -57.5 -235.5t-161.5 -164.5v-4q20 -27 55 -88l209 -377q20 -35 20 -63q0 -19 -9 -34q-22 -38 -88 -38h-156q-88 0 -133 80l-217 414h-168v-381q0 -113 -113 -113h-133 q-113 0 -113 113zM500 801h155q87 0 137 46.5t50 133.5q0 60 -19 98.5t-67 57.5q-47 20 -135 20h-121v-356z" />
<glyph unicode="S" horiz-adv-x="1161" d="M67 210q2 30 27 66l64 93q30 43 68 49q6 1 13 1q33 0 74 -24q3 -2 32 -18.5t47.5 -25t50.5 -21.5t66.5 -19t70.5 -6q76 0 115.5 29t39.5 74q0 33 -22 61t-59.5 49.5t-86 43t-102 44.5t-107.5 49.5t-102.5 63t-86 80.5t-59.5 105.5t-22 135.5q0 200 148 324.5t374 124.5 q118 0 227 -33.5t169 -75.5q52 -38 52 -89q0 -30 -18 -64l-49 -97q-15 -29 -33 -44t-38.5 -16t-39 4.5t-42.5 17.5q-47 23 -71.5 33.5t-70 22t-90.5 11.5q-81 0 -120.5 -28t-39.5 -74q0 -34 22 -62t59.5 -49.5t86.5 -42t102.5 -42.5t107 -47.5t102.5 -61t86.5 -79 t59.5 -105.5t22 -136q0 -93 -34.5 -175.5t-98 -145.5t-162.5 -99.5t-219 -36.5q-140 0 -267.5 45.5t-197.5 100.5q-25 20 -37 39q-11 16 -11 41v9z" />
<glyph unicode="T" horiz-adv-x="1271" d="M12 1270v82q0 112 113 112h1022q113 0 113 -112v-82q0 -113 -113 -113h-332v-1044q0 -113 -113 -113h-133q-112 0 -112 113v1044h-332q-113 0 -113 113z" />
<glyph unicode="U" horiz-adv-x="1478" d="M127 539v813q0 112 113 112h133q112 0 112 -112v-813q0 -114 68 -175t186 -61t186 61t68 175v813q0 112 113 112h133q113 0 113 -112v-813q0 -249 -168 -406.5t-443 -157.5q-277 0 -445.5 157t-168.5 407z" />
<glyph unicode="V" horiz-adv-x="1351" d="M16 1335q-9 26 -9 48q0 27 14 46q25 35 88 35h153q100 0 127 -94l229 -739q13 -41 27 -100t21 -97l8 -39h4q26 144 55 236l234 739q27 94 127 94h147q63 0 87 -35q13 -19 14 -46q0 -22 -9 -48l-438 -1245q-34 -90 -129 -90h-180q-95 0 -129 90z" />
<glyph unicode="W" horiz-adv-x="2013" d="M57 1339q-5 20 -5 38q0 33 18 54q26 33 86 33h145q102 0 123 -100l164 -815q8 -40 12.5 -78.5t5.5 -56.5v-19h4q2 64 25 154l201 817q24 98 125 98h88q101 0 122 -98l197 -817q10 -40 16.5 -78.5t7.5 -56.5l1 -19h4q0 64 18 154l178 817q21 98 125 98h140q60 0 86 -33 q17 -21 17 -54q0 -17 -5 -38l-316 -1243q-23 -96 -124 -96h-199q-101 0 -125 98l-160 641q-10 42 -17 85t-9 65l-2 22h-5q-5 -78 -28 -172l-160 -641q-24 -98 -125 -98h-203q-101 0 -125 98z" />
<glyph unicode="X" horiz-adv-x="1310" d="M64 1426q22 38 90 38h159q88 0 133 -80l117 -221q22 -41 44.5 -88t34.5 -73l11 -27h4q40 94 91 188l118 221q45 80 133 80h160q67 0 89 -38q8 -14 9 -32q0 -28 -22 -65l-367 -602l363 -592q23 -37 23 -66q0 -17 -8 -31q-22 -38 -91 -38h-149q-89 0 -134 80l-124 227 q-23 41 -45.5 86.5t-34.5 70.5l-11 25h-4q-39 -90 -90 -182l-125 -227q-45 -80 -133 -80h-147q-69 0 -91 38q-8 15 -8 32q0 28 21 65l362 592l-364 602q-22 37 -22 65q0 18 8 32z" />
<glyph unicode="Y" horiz-adv-x="1230" d="M18 1426q22 38 88 38h162q91 0 131 -84l127 -268q21 -44 43 -97t33 -83l12 -31h4q42 111 89 211l124 268q40 84 132 84h161q66 0 88 -38q10 -15 10 -34q0 -28 -20 -63l-407 -729v-487q0 -113 -113 -113h-133q-113 0 -113 113v487l-407 729q-20 35 -20 63q0 19 9 34z" />
<glyph unicode="Z" horiz-adv-x="1271" d="M61 113v34q0 81 45 142l521 737q28 40 56 73t42 47l14 13v4q-46 -6 -112 -6h-426q-113 0 -113 113v82q0 112 113 112h880q113 0 113 -110v-33q0 -80 -45 -141l-522 -742q-28 -40 -56.5 -73.5t-42.5 -46.5l-14 -13v-4q47 6 113 6h465q112 0 112 -112v-82q0 -113 -112 -113 h-918q-113 0 -113 113z" />
<glyph unicode="[" horiz-adv-x="679" d="M125 -82v1505q0 113 113 113h278q113 0 113 -113v-20q0 -113 -105 -113h-104v-1239h96q113 0 113 -112v-21q0 -113 -113 -113h-278q-113 0 -113 113z" />
<glyph unicode="\" horiz-adv-x="864" d="M63 1407q-19 60 7 94.5t88 34.5h61q99 0 129 -92l453 -1403q19 -58 -6.5 -92.5t-87.5 -34.5h-62q-99 0 -129 92z" />
<glyph unicode="]" horiz-adv-x="679" d="M51 -61q0 112 113 112h96v1239h-96q-113 0 -113 113v20q0 113 113 113h278q113 0 113 -113v-1505q0 -113 -113 -113h-278q-113 0 -113 113v21z" />
<glyph unicode="^" d="M173.5 530q-24.5 36 0.5 95l324 753q36 86 131 86h30q96 0 132 -86l323 -753q25 -59 0.5 -95t-88.5 -36h-57q-95 0 -129 90l-197 524l-194 -524q-34 -90 -130 -90h-57q-64 0 -88.5 36z" />
<glyph unicode="_" horiz-adv-x="1196" d="M-12 -113q0 113 112 113h996q112 0 112 -113v-41q0 -112 -112 -112h-996q-112 0 -112 112v41z" />
<glyph unicode="`" horiz-adv-x="991" d="M316.5 1825q15.5 41 86.5 41h95q88 0 133 -80l57 -105q28 -46 15.5 -84t-66.5 -38h-74q-84 0 -137 67l-80 103q-45 55 -29.5 96z" />
<glyph unicode="a" horiz-adv-x="1101" d="M33 297q0 82 37.5 146t97 103.5t140 65t159 35.5t162.5 10h30v19q0 61 -42 89t-107 28q-89 0 -191 -48q-33 -14 -61 -14q-58 0 -90 64l-25 51q-17 35 -17 64q0 55 62 87q177 82 355 82q219 0 345 -114.5t126 -315.5v-536q0 -113 -113 -113h-98q-113 0 -113 115v8l2 20h-4 q-4 -7 -12 -18t-36.5 -40t-61.5 -51.5t-87.5 -40.5t-113.5 -18q-151 0 -247.5 92t-96.5 230zM383 330q0 -39 26 -64.5t74 -25.5q74 0 127.5 59t53.5 127v29h-33q-44 0 -85 -6.5t-79 -20t-61 -39t-23 -59.5z" />
<glyph unicode="b" horiz-adv-x="1269" d="M106 113v1239q0 112 113 112h129q113 0 113 -112v-316l-4 -90h4q4 5 11.5 14t34.5 32t57.5 40.5t81.5 32t106 14.5q207 0 338 -153t131 -394q0 -250 -139 -403.5t-347 -153.5q-62 0 -116 15t-86.5 37t-56 44t-32.5 37l-10 15h-4q2 -9 2 -21v-8q0 -42 -29.5 -68t-83.5 -26 h-100q-113 0 -113 113zM451 530q0 -112 53 -187t149 -75q91 0 151 67.5t60 186.5q0 115 -57 186.5t-148 71.5q-88 0 -148 -65t-60 -185z" />
<glyph unicode="c" horiz-adv-x="1083" d="M45 528q0 107 39.5 205.5t112 176t185.5 123.5t251 46q198 0 340 -94q41 -27 47 -69q1 -7 1 -13q0 -35 -24 -72l-34 -53q-27 -46 -65 -52l-16 -2q-32 0 -71 21q-80 39 -156 39q-119 0 -185.5 -75t-66.5 -177q0 -103 70 -182.5t195 -79.5q91 0 190 60q39 21 70 21 q53 0 84 -60l26 -51q20 -39 20 -70q0 -50 -50 -84q-168 -111 -375 -111q-137 0 -250 45.5t-186 122t-112.5 176t-39.5 209.5z" />
<glyph unicode="d" horiz-adv-x="1269" d="M49 528q0 248 134 399.5t347 151.5q60 0 110.5 -10.5t79.5 -26t50 -31t29 -25.5l8 -11h4q-2 20 -2 47v330q0 112 113 112h129q112 0 112 -112v-1239q0 -113 -112 -113h-107q-113 0 -113 102v13l3 14h-5l-11 -16.5t-34 -37t-59 -47t-86 -37t-115 -16.5q-214 0 -344.5 153 t-130.5 400zM406 528q0 -118 56.5 -189t149.5 -71q87 0 147 66t60 194q0 103 -54.5 177.5t-152.5 74.5q-87 0 -146.5 -67.5t-59.5 -184.5z" />
<glyph unicode="e" horiz-adv-x="1122" d="M45 528q0 155 65.5 279.5t191.5 198t292 73.5q152 0 264 -67.5t167.5 -180.5t55.5 -256q0 -44 -34 -80t-84 -36h-555q19 -92 87 -140.5t158 -48.5q97 0 193 49q36 17 65 17q13 0 23 -2q38 -10 63 -58l29 -53q19 -37 19 -67q0 -53 -58 -86q-168 -95 -362 -95 q-137 0 -249 46.5t-183 124.5t-109.5 176.5t-38.5 205.5zM416 662h315q0 67 -39.5 112t-105.5 45q-72 0 -113.5 -43.5t-56.5 -113.5z" />
<glyph unicode="f" horiz-adv-x="745" d="M37 872v52q0 112 113 112h26v51q0 69 19 127t49 97t71 69t82 47t85 28t76 14.5t60 3.5h35q113 0 113 -113v-76q0 -104 -113 -113q-19 -2 -31 -3.5t-31.5 -8t-31 -16.5t-20.5 -29t-9 -45v-33h82q113 0 113 -112v-52q0 -112 -113 -112h-82v-647q0 -113 -112 -113h-129 q-113 0 -113 113v647h-26q-113 0 -113 112z" />
<glyph unicode="g" horiz-adv-x="1253" d="M51 561q0 103 30 194.5t87.5 164.5t152 116t214.5 43q63 0 116 -14t83 -34t51.5 -40.5t29.5 -34.5l8 -14h4q-2 9 -2 21v4q0 38 29.5 63t83.5 25h96q113 0 113 -113v-846q0 -111 -35 -202t-92.5 -150t-134 -99t-156.5 -57.5t-164 -17.5q-89 0 -176 15t-137 36 q-52 22 -67 57q-6 15 -6 33q0 25 11 56l23 61q20 53 53 68q15 8 36 8q23 0 54 -10q92 -29 189 -29q111 0 179.5 47t68.5 156v53l2 39h-4q-44 -65 -106 -97t-153 -32q-117 0 -211 44.5t-151.5 119.5t-88 169t-30.5 197zM408 573q0 -106 51 -176.5t151 -70.5q81 0 136 52.5 t55 178.5q0 67 -16.5 113.5t-47 70t-64.5 33.5t-77 10q-91 0 -139.5 -58.5t-48.5 -152.5z" />
<glyph unicode="h" horiz-adv-x="1251" d="M106 113v1239q0 112 113 112h129q113 0 113 -112v-351l-4 -90h4q44 78 130.5 123t190.5 45q83 0 149.5 -20.5t119.5 -65t81.5 -123t28.5 -186.5v-571q0 -113 -112 -113h-129q-113 0 -113 113v505q0 73 -29 106.5t-88 33.5q-111 0 -170 -78t-59 -205v-362 q0 -113 -113 -113h-129q-113 0 -113 113z" />
<glyph unicode="i" horiz-adv-x="563" d="M104 113v829q0 113 113 113h129q113 0 113 -113v-829q0 -113 -113 -113h-129q-113 0 -113 113zM109 1300v52q0 112 112 112h121q113 0 113 -112v-52q0 -112 -113 -112h-121q-112 0 -112 112z" />
<glyph unicode="j" horiz-adv-x="567" d="M-129 -236q0 32 9 54t27.5 33.5t35 16.5t41.5 9t43 10t38 19.5t30.5 39.5t10.5 62v934q0 113 113 113h129q113 0 113 -113v-960q0 -70 -19 -130t-49.5 -101t-71.5 -73t-82.5 -51t-85 -31.5t-75.5 -17t-58 -4.5h-36q-113 0 -113 113v77zM111 1300v52q0 112 112 112h121 q113 0 113 -112v-52q0 -112 -113 -112h-121q-112 0 -112 112z" />
<glyph unicode="k" horiz-adv-x="1167" d="M106 113v1239q0 112 113 112h129q113 0 113 -112v-645h100l164 272q44 76 133 76h135q69 0 90 -39q8 -14 8 -31q0 -29 -24 -65l-221 -345v-4l268 -436q22 -37 22 -66q0 -17 -8 -31q-21 -38 -90 -38h-153q-88 0 -133 80l-181 330h-110v-297q0 -113 -113 -113h-129 q-113 0 -113 113z" />
<glyph unicode="l" horiz-adv-x="628" d="M100 389v963q0 112 113 112h129q113 0 113 -112v-946q0 -98 59 -105q82 -10 82 -96v-101q0 -114 -115 -114q-62 0 -110.5 7t-101.5 31.5t-88 66.5t-58 117t-23 177z" />
<glyph unicode="m" horiz-adv-x="1826" d="M104 113v829q0 113 113 113h115q110 0 110 -113v-18l-2 -27h4q121 182 314 182q101 0 177.5 -45t117.5 -133h4q46 73 136.5 125.5t201.5 52.5q156 0 249 -94.5t93 -300.5v-571q0 -113 -113 -113h-129q-113 0 -113 113v512q0 65 -17.5 99t-64.5 34q-55 0 -96 -26 t-63 -71.5t-32.5 -98.5t-10.5 -116v-333q0 -113 -113 -113h-129q-113 0 -113 113v512q0 66 -17 99.5t-64 33.5q-58 0 -99.5 -27.5t-63 -75t-31 -99t-9.5 -110.5v-333q0 -113 -113 -113h-129q-113 0 -113 113z" />
<glyph unicode="n" horiz-adv-x="1249" d="M104 113v829q0 113 113 113h115q110 0 110 -113v-18l-2 -27h4q45 76 127.5 129t208.5 53q83 0 149.5 -20.5t119.5 -65t81.5 -123t28.5 -186.5v-571q0 -113 -112 -113h-129q-113 0 -113 113v505q0 73 -29 106.5t-88 33.5q-112 0 -170.5 -80t-58.5 -201v-364 q0 -113 -113 -113h-129q-113 0 -113 113z" />
<glyph unicode="o" horiz-adv-x="1286" d="M45 524q0 122 47 226.5t127 176t189.5 112t232.5 40.5q167 0 303 -68.5t216.5 -196.5t80.5 -290q0 -161 -80.5 -287.5t-216 -194t-301.5 -67.5t-301.5 67.5t-216 194t-80.5 287.5zM403 524q0 -115 70 -184.5t170 -69.5t170 69.5t70 184.5q0 117 -70 188.5t-170 71.5 t-170 -71.5t-70 -188.5z" />
<glyph unicode="p" horiz-adv-x="1269" d="M106 -297v1239q0 113 113 113h92q54 0 83.5 -25.5t29.5 -66.5v-23l-2 -20h4q4 6 12 17t36.5 38.5t62 48.5t90 38t118.5 17q214 0 345 -153t131 -400t-139 -399t-353 -152q-53 0 -100.5 12.5t-76.5 30.5t-51 35.5t-31 30.5l-9 12h-4q4 -37 4 -90v-303q0 -113 -113 -113 h-129q-113 0 -113 113zM451 520q0 -103 54 -177.5t152 -74.5q87 0 147 67.5t60 184.5q0 118 -57 189t-150 71q-87 0 -146.5 -66t-59.5 -194z" />
<glyph unicode="q" horiz-adv-x="1269" d="M49 528q0 248 136 399.5t352 151.5q64 0 119 -14.5t87.5 -35.5t55.5 -41.5t32 -35.5l9 -14h4q-2 8 -2 20v9q0 38 29.5 63t82.5 25h97q112 0 112 -113v-1239q0 -113 -112 -113h-129q-113 0 -113 113v320l4 90h-4q-3 -6 -9.5 -15t-31 -33t-55 -42t-84 -33t-115.5 -15 q-204 0 -334.5 154t-130.5 399zM406 528q0 -118 56.5 -189t149.5 -71q87 0 147 66t60 194q0 103 -54.5 177.5t-152.5 74.5q-87 0 -146.5 -67.5t-59.5 -184.5z" />
<glyph unicode="r" horiz-adv-x="829" d="M104 113v829q0 113 113 113h115q112 0 112 -113v-65l-4 -66h4q30 93 109.5 173.5t171.5 80.5q52 0 74 -27.5t22 -85.5v-114q0 -113 -112 -113q-121 0 -185.5 -89.5t-64.5 -225.5v-297q0 -113 -113 -113h-129q-113 0 -113 113z" />
<glyph unicode="s" horiz-adv-x="942" d="M52 140q-1 7 -1 15q0 35 25 72l30 47q30 44 67 51q8 2 17 2q31 0 72 -20q40 -18 59 -26t61 -18.5t81 -10.5q96 0 96 59q0 24 -27 42.5t-70.5 32.5t-96 30t-105.5 41.5t-96.5 60.5t-70.5 93t-27 134q0 157 123.5 245.5t314.5 88.5q156 0 299 -67q46 -23 56 -64 q3 -12 3 -24q0 -31 -18 -64l-25 -49q-23 -47 -60 -59q-13 -4 -27 -4q-28 0 -62 14q-112 41 -181 41q-94 0 -94 -55q0 -24 27 -42t71 -31.5t96.5 -29t105 -40.5t96.5 -59t71 -91.5t27 -132.5q0 -151 -118 -249t-316 -98q-184 0 -351 97q-46 26 -52 68z" />
<glyph unicode="t" horiz-adv-x="817" d="M35 872v52q0 112 112 112h39v191q0 112 113 112h119q112 0 112 -112v-191h109q113 0 113 -112v-52q0 -112 -111 -112h-111v-320q0 -62 34.5 -94t88.5 -39q63 -8 88 -31.5t25 -80.5v-93q0 -61 -36 -86.5t-109 -25.5q-52 0 -106.5 9.5t-117 36.5t-110 68t-79.5 111.5 t-32 159.5v385h-31q-110 0 -110 112z" />
<glyph unicode="u" horiz-adv-x="1241" d="M92 371v571q0 113 113 113h129q112 0 112 -113v-506q0 -139 113 -139q109 0 166 82.5t57 208.5v354q0 113 113 113h129q113 0 113 -113v-829q0 -113 -113 -113h-115q-110 0 -110 113v18l2 27h-4q-42 -84 -132.5 -133.5t-197.5 -49.5q-82 0 -147.5 20.5t-118 65.5 t-81 123.5t-28.5 186.5z" />
<glyph unicode="v" horiz-adv-x="1134" d="M33 926q-9 27 -9 48q0 27 14 46q24 35 87 35h137q98 0 125 -94l137 -467q9 -30 18.5 -76t15.5 -76l5 -31h4q19 113 39 183l135 467q27 94 125 94h142q62 1 87 -35q14 -20 14 -47q0 -21 -9 -47l-285 -834q-29 -92 -127 -92h-239q-98 0 -127 92z" />
<glyph unicode="w" horiz-adv-x="1683" d="M43 928q-6 22 -6 40q1 31 17 53q26 34 85 34h140q101 0 122 -101l111 -522q5 -25 8 -52.5t4 -42.5v-15h4q5 53 19 110l123 524q21 99 123 99h102q102 0 123 -99l123 -524q6 -25 10 -52.5t5 -42.5l1 -15h4q3 53 15 110l110 522q21 101 123 101h135q60 0 86 -34 q16 -21 16 -53q0 -18 -6 -40l-233 -832q-26 -96 -125 -96h-197q-100 0 -124 98l-95 389q-6 25 -11 53.5t-7 43.5l-2 16h-4q-7 -56 -21 -113l-94 -389q-24 -98 -125 -98h-201q-99 0 -125 96z" />
<glyph unicode="x" horiz-adv-x="1069" d="M56 1016q22 39 91 39h146q90 0 133 -82l74 -154l32 -69h5q20 42 32 69l74 154q43 82 133 82h146q68 0 90 -39q8 -14 8 -31q0 -29 -23 -65l-252 -398l246 -387q23 -36 23 -64q0 -17 -8 -32q-22 -39 -91 -39h-137q-88 0 -133 80l-84 158l-24 53h-5q-14 -35 -24 -53 l-82 -158q-45 -80 -133 -80h-137q-69 0 -91 39q-8 15 -8 32q0 29 23 64l246 387l-254 398q-23 36 -23 65q-1 17 7 31z" />
<glyph unicode="y" horiz-adv-x="1089" d="M10 1018q23 37 88 37h160q99 0 129 -92l125 -394q8 -25 18 -66t16 -69l5 -28h4q21 100 35 157l106 395q26 97 127 97h150q62 0 87 -35q13 -19 13 -45q0 -22 -10 -49l-385 -1039q-62 -165 -181 -241t-259 -76q-69 0 -148 27q-50 17 -64 57q-5 16 -5 32q0 28 14 58l26 59 q31 68 92 68q11 0 23 -2q40 -10 62 -10q46 0 85.5 32t59.5 80l20 49l-391 904q-14 30 -14 55q0 22 12 39z" />
<glyph unicode="z" horiz-adv-x="1073" d="M49 88v27q0 39 10.5 64t38.5 61l338 422q24 29 47 53t34 33l11 10v4q-26 -4 -92 -4h-258q-112 0 -112 112v72q0 113 112 113h717q113 0 113 -88v-27q0 -39 -10.5 -63.5t-39.5 -61.5l-335 -424q-23 -28 -46.5 -52t-36.5 -34l-12 -10v-4q27 6 95 6h282q113 0 113 -113v-71 q0 -113 -113 -113h-743q-113 0 -113 88z" />
<glyph unicode="{" horiz-adv-x="759" d="M39 621v114q0 45 20.5 69.5t69.5 55.5q84 49 84 174v180q0 77 26.5 138.5t65.5 96.5t88.5 58t90 31t75.5 8h37q113 0 113 -112v-41q0 -113 -113 -113q-88 0 -88 -109v-229q0 -59 -17.5 -107t-43 -75t-51 -46t-42.5 -26l-18 -6v-4q7 -2 18.5 -6t41 -23t52.5 -45t41.5 -75 t18.5 -109v-250q0 -109 88 -109q113 0 113 -112v-41q0 -113 -113 -113h-37q-35 0 -75.5 8t-90 31t-88.5 58t-65.5 96.5t-26.5 138.5v201q0 116 -82 170q-50 29 -71 53.5t-21 69.5z" />
<glyph unicode="|" horiz-adv-x="540" d="M123 -225v1755q0 112 113 112h69q113 0 113 -112v-1755q0 -113 -113 -113h-69q-113 0 -113 113z" />
<glyph unicode="}" horiz-adv-x="761" d="M51 -51q0 112 113 112q88 0 88 109v250q0 60 17.5 109t43 75.5t51 44.5t42.5 23l18 6v4q-7 2 -18.5 6.5t-41 25t-52.5 46.5t-41.5 74.5t-18.5 107.5v229q0 109 -88 109q-113 0 -113 113v41q0 112 113 112h37q35 0 75.5 -8t90 -31t88.5 -58t65.5 -96.5t26.5 -138.5v-180 q0 -125 84 -174q49 -31 69.5 -55.5t20.5 -69.5v-114q0 -45 -21 -69.5t-71 -53.5q-82 -54 -82 -170v-201q0 -77 -26.5 -138.5t-65.5 -96.5t-88.5 -58t-90 -31t-75.5 -8h-37q-113 0 -113 113v41z" />
<glyph unicode="~" horiz-adv-x="1228" d="M80 526q53 281 344 281q53 0 98.5 -17t77.5 -41t60 -48t57.5 -41t58.5 -17q62 0 92 55q21 39 32 56t34 31t55 14h55q58 0 88 -31.5t21 -87.5q-47 -297 -346 -297q-53 0 -98.5 17t-77.5 41t-60 48t-58 41t-60 17q-61 0 -91 -55q-21 -40 -31.5 -56.5t-33.5 -30.5t-55 -14 h-58q-58 0 -87 36t-17 99z" />
<glyph unicode="&#xa1;" horiz-adv-x="565" d="M102 -295l25 787q1 54 31 82t84 28h82q111 0 114 -110l25 -787q2 -56 -27 -85.5t-84 -29.5h-139q-55 0 -84 29.5t-27 85.5zM121 860v82q0 113 112 113h99q112 0 112 -113v-82q0 -112 -112 -112h-99q-112 0 -112 112z" />
<glyph unicode="&#xa2;" horiz-adv-x="1167" d="M68 733q0 214 125.5 376t310.5 204v61q0 113 106 113h13q106 0 106 -86v-88q106 -21 208 -96t140 -152q51 -102 -61 -145l-111 -43q-28 -11 -49 -12.5t-39 9t-28.5 21t-30.5 33.5q-54 63 -127 63q-82 0 -144.5 -72.5t-62.5 -193.5q0 -115 58.5 -182.5t146.5 -67.5 q74 0 129 64q15 17 23 25.5t22.5 19.5t27.5 14.5t32.5 2.5t41.5 -9l111 -43q112 -45 59 -148q-39 -77 -139.5 -156.5t-206.5 -90.5v-66q0 -113 -106 -113h-13q-106 0 -106 113v66q-186 42 -311 203t-125 376z" />
<glyph unicode="&#xa3;" horiz-adv-x="1251" d="M102 113v82q0 112 113 112h10v305h-20q-55 0 -79 26.5t-24 82.5v12q0 56 24 82.5t79 26.5h20v205q0 195 141 318.5t359 123.5q164 0 313 -100q44 -28 47 -71t-32 -85l-56 -72q-56 -75 -157 -22q-54 28 -105 28q-60 0 -101.5 -36t-41.5 -95v-194h225q113 0 113 -109v-12 q0 -109 -113 -109h-225v-305h481q113 0 113 -112v-82q0 -113 -113 -113h-858q-113 0 -113 113z" />
<glyph unicode="&#xa5;" horiz-adv-x="1263" d="M82 1427q23 37 88 37h168q95 0 129 -90l76 -203q22 -60 44 -128t33 -106l11 -38h4q39 137 88 272l76 203q34 90 129 90h166q66 0 89.5 -37t-5.5 -96l-217 -438h77q113 0 113 -92v-13q0 -92 -113 -92h-174l-49 -100v-57h223q113 0 113 -93v-12q0 -92 -113 -92h-223v-229 q0 -113 -113 -113h-141q-112 0 -112 113v229h-222q-112 0 -112 92v12q0 93 112 93h222v57l-50 100h-172q-112 0 -112 92v13q0 92 94 92h94l-215 438q-29 59 -6 96z" />
<glyph unicode="&#xa7;" horiz-adv-x="1048" d="M86.5 35.5q-7.5 41.5 19.5 85.5l29 47q53 86 154 35q89 -49 186 -49q90 0 145.5 45t55.5 147q0 64 -27 158l-102 364q-17 58 8.5 92.5t85.5 34.5h37q101 0 127 -96l125 -463q20 -76 20 -153q0 -182 -122.5 -296t-350.5 -114q-190 0 -340 94q-43 27 -50.5 68.5zM100 1079 q0 182 122.5 296t350.5 114q184 0 338 -92q44 -27 50 -69.5t-25 -86.5l-29 -41q-30 -43 -67 -50t-86 17q-88 39 -176 39q-94 0 -147.5 -38t-53.5 -132q0 -61 20 -137l113 -405q15 -59 -10 -93t-86 -34h-39q-99 0 -125 96l-129 463q-21 80 -21 153z" />
<glyph unicode="&#xa8;" horiz-adv-x="993" d="M154 1692v61q0 113 112 113h33q113 0 113 -113v-61q0 -113 -113 -113h-33q-112 0 -112 113zM582 1692v61q0 113 112 113h33q113 0 113 -113v-61q0 -113 -113 -113h-33q-112 0 -112 113z" />
<glyph unicode="&#xa9;" horiz-adv-x="1630" d="M76 733q0 154 58 293.5t156.5 240.5t235 160.5t287.5 59.5t288.5 -59.5t236.5 -160.5t157.5 -240.5t58.5 -293.5q0 -123 -37.5 -239t-106 -209t-159.5 -163t-204 -108.5t-234 -38.5q-151 0 -287.5 60t-235 161.5t-156.5 242t-58 294.5zM307 733q0 -113 39 -214t106 -174 t161 -116t200 -43q141 0 259 72.5t185.5 198.5t67.5 276q0 149 -67 274t-185 197t-260 72q-106 0 -200.5 -42.5t-161.5 -115t-105.5 -173t-38.5 -212.5zM463 727q0 162 104.5 272.5t255.5 110.5q90 0 161.5 -39.5t107.5 -91.5q23 -41 18 -68t-29 -47l-39 -33 q-30 -23 -66 -15t-63 40q-35 39 -86 39q-52 0 -88.5 -46.5t-36.5 -127.5q0 -76 34 -119t91 -43q65 0 105 45q56 62 110 17l37 -31q62 -52 11 -119q-37 -49 -106.5 -88t-160.5 -39q-151 0 -255.5 110.5t-104.5 272.5z" />
<glyph unicode="&#xaa;" horiz-adv-x="806" d="M84 995q0 44 16 79.5t40 58t60 39t68 25t72 13.5t64 6t51 1h10v16q0 74 -94 74q-37 0 -86 -17q-41 -16 -73 -7.5t-44 40.5l-8 20q-30 73 67 111q82 31 183 31q144 0 220.5 -74t76.5 -203v-297q0 -112 -101 -112h-6q-100 0 -100 102v8h-4q-2 -5 -6 -13.5t-20 -30t-36 -38 t-55 -30t-76 -13.5q-90 0 -154.5 58t-64.5 153zM90 631v12q0 80 113 80h399q113 0 113 -80v-12q0 -82 -113 -82h-399q-113 0 -113 82zM324 1008q0 -41 47 -41q36 0 64 28t28 64v10h-21q-118 0 -118 -61z" />
<glyph unicode="&#xab;" horiz-adv-x="1232" d="M100 498q-64 80 0 159l219 277q53 65 138 65h63q72 0 92 -40.5t-26 -96.5l-226 -284l226 -283q44 -55 29.5 -96t-80.5 -41h-78q-85 0 -138 65zM633 498q-65 80 0 159l219 277q53 65 137 65h64q72 0 91.5 -40.5t-26.5 -96.5l-225 -284l225 -283q44 -55 29.5 -96t-80.5 -41 h-78q-84 0 -137 65z" />
<glyph unicode="&#xac;" horiz-adv-x="1232" d="M72 803v41q0 112 112 112h811q113 0 113 -112v-461q0 -113 -113 -113h-51q-113 0 -113 113v307h-647q-112 0 -112 113z" />
<glyph unicode="&#xad;" horiz-adv-x="843" d="M100 547v82q0 112 113 112h418q112 0 112 -112v-82q0 -113 -112 -113h-418q-113 0 -113 113z" />
<glyph unicode="&#xae;" horiz-adv-x="1630" d="M76 733q0 154 58 293.5t156.5 240.5t234.5 160.5t286 59.5q153 0 290.5 -59.5t236.5 -160.5t157.5 -240.5t58.5 -293.5t-58.5 -294.5t-157.5 -242t-237 -161.5t-290 -60q-120 0 -232 38.5t-202.5 108.5t-158.5 163t-105 209t-37 239zM307 733q0 -150 66 -276t182 -198.5 t256 -72.5q143 0 261 72.5t185.5 198t67.5 276.5q0 150 -67.5 274.5t-185.5 196.5t-261 72q-140 0 -256 -72t-182 -197t-66 -274zM545 496v485q0 113 112 113h222q115 0 182 -64t67 -172q0 -76 -40 -123.5t-78 -58.5v-4q10 -8 26 -41l60 -115q30 -58 15.5 -95.5t-67.5 -37.5 h-26q-95 0 -131 86l-64 156h-57v-129q0 -113 -104 -113h-13q-104 0 -104 113zM766 772h55q40 0 61 22.5t21 63.5q0 84 -78 84h-59v-170z" />
<glyph unicode="&#xaf;" horiz-adv-x="993" d="M215 1708v16q0 107 113 107h338q112 0 112 -107v-16q0 -106 -112 -106h-338q-113 0 -113 106z" />
<glyph unicode="&#xb0;" horiz-adv-x="835" d="M47 1141q0 146 108.5 250t262.5 104q153 0 261.5 -104.5t108.5 -249.5q0 -148 -108 -250.5t-262 -102.5q-155 0 -263 102.5t-108 250.5zM305 1143q0 -45 33.5 -77t79.5 -32t79 32t33 77q0 43 -33 74.5t-79 31.5t-79.5 -31.5t-33.5 -74.5z" />
<glyph unicode="&#xb1;" d="M86 567v41q0 113 113 113h307v344q0 113 112 113h54q112 0 112 -113v-344h308q112 0 112 -113v-41q0 -112 -112 -112h-308v-342q0 -113 -112 -113h-54q-112 0 -112 113v342h-307q-113 0 -113 112zM106 -256q0 113 113 113h852q113 0 113 -113v-41q0 -113 -113 -113h-852 q-113 0 -113 113v41z" />
<glyph unicode="&#xb2;" horiz-adv-x="780" d="M45 973q0 72 22.5 132.5t58.5 101t79.5 74.5t87 59t79.5 47t58.5 46.5t22.5 51.5q0 33 -27.5 51t-65.5 18q-36 0 -69 -20t-55.5 -28.5t-47.5 -4t-51 26.5l-14 12q-42 36 -43.5 76t37.5 76q115 98 262 98q61 0 118.5 -17.5t106.5 -51.5t79 -92t30 -132q0 -67 -26.5 -123 t-67 -91t-88.5 -65.5t-90 -49.5t-72 -40.5t-35 -40.5h278q113 0 113 -104v-12q0 -105 -113 -105h-454q-55 0 -84 28t-29 79z" />
<glyph unicode="&#xb3;" horiz-adv-x="755" d="M66 1653v12q0 104 112 104h377q113 0 113 -79v-15q0 -38 -12.5 -65.5t-41.5 -61.5l-116 -127q100 -25 149 -93t49 -165q0 -128 -94.5 -222.5t-259.5 -94.5q-145 0 -248 72q-84 53 -26 143l10 16q28 44 63.5 49t81.5 -20q52 -25 103 -25t80.5 24t29.5 62q0 33 -33.5 53.5 t-78.5 20.5h-15q-77 0 -100 59q-25 60 37 127l65 72q6 8 18.5 19.5t21.5 19.5l9 8v4q-42 -4 -69 -4h-113q-112 0 -112 107z" />
<glyph unicode="&#xb4;" horiz-adv-x="991" d="M293 1595.5q-19 36.5 10 87.5l57 103q45 80 134 80h94q71 0 86.5 -41t-29.5 -96l-80 -103q-53 -67 -137 -67h-59q-57 0 -76 36.5z" />
<glyph unicode="&#xb5;" horiz-adv-x="1327" d="M135 -297v1239q0 113 113 113h129q112 0 112 -113v-506q0 -139 113 -139q109 0 166 82.5t57 208.5v354q0 113 113 113h129q113 0 113 -113v-829q0 -113 -113 -113h-115q-110 0 -110 113v18l2 27h-4q-42 -84 -132.5 -133.5t-197.5 -49.5q-23 0 -44.5 2t-31.5 5l-10 2h-4 q16 -99 16 -181v-100q0 -113 -112 -113h-76q-113 0 -113 113z" />
<glyph unicode="&#xb6;" horiz-adv-x="1359" d="M63 981q0 204 139.5 343.5t338.5 139.5h618q113 0 113 -112v-82q0 -113 -113 -113h-373v-1147q0 -112 -112 -112h-21q-112 0 -112 112v484q-130 0 -240 64t-174 176t-64 247zM913 10v932q0 113 113 113h21q112 0 112 -113v-932q0 -112 -112 -112h-21q-113 0 -113 112z " />
<glyph unicode="&#xb7;" horiz-adv-x="528" d="M102 549v110q0 113 113 113h98q113 0 113 -113v-110q0 -113 -113 -113h-98q-113 0 -113 113z" />
<glyph unicode="&#xb8;" horiz-adv-x="991" d="M317 -346q0 42 15.5 65t34.5 23q11 0 28 -2t23 -2q55 0 55 49q0 24 -21.5 35t-62.5 14q-51 3 -29 74l43 135h158l-26 -119q67 -7 110 -47t43 -117q0 -101 -69 -146.5t-170 -45.5q-132 0 -132 84z" />
<glyph unicode="&#xb9;" horiz-adv-x="696" d="M55 971v12q0 104 92 104h91v293q0 17 1.5 33.5t2.5 24.5l2 8h-4q-7 -13 -19 -23l-14 -12q-17 -14 -41.5 -12t-44.5 22l-33 33q-36 38 -31.5 77t45.5 77l113 106q61 55 139 55h29q113 0 113 -112v-570h71q113 0 113 -104v-12q0 -105 -113 -105h-399q-113 0 -113 105z" />
<glyph unicode="&#xba;" horiz-adv-x="897" d="M76 1137q0 154 107 251t263 97q160 0 268.5 -97t108.5 -251t-108 -251.5t-266 -97.5q-157 0 -265 97.5t-108 251.5zM102 631v12q0 80 113 80h467q113 0 113 -80v-12q0 -82 -113 -82h-467q-113 0 -113 82zM319 1137q0 -63 37.5 -100.5t92.5 -37.5q54 0 91.5 37.5 t37.5 100.5q0 62 -37.5 100.5t-91.5 38.5t-92 -39t-38 -100z" />
<glyph unicode="&#xbb;" horiz-adv-x="1232" d="M82.5 958.5q15.5 40.5 81.5 40.5h78q84 0 137 -65l219 -277q64 -79 0 -159l-219 -275q-53 -65 -137 -65h-64q-72 0 -91 41t26 96l225 283l-225 284q-46 56 -30.5 96.5zM614.5 958.5q15.5 40.5 81.5 40.5h78q84 0 137 -65l219 -277q64 -79 0 -159l-219 -275 q-53 -65 -137 -65h-63q-72 0 -91 41t25 96l225 283l-225 284q-46 56 -30.5 96.5z" />
<glyph unicode="&#xbc;" horiz-adv-x="2052" d="M84 666v12q0 104 92 104h90v293q0 17 1.5 33.5t2.5 24.5l2 8h-4q-6 -13 -18 -23l-14 -12q-17 -14 -41.5 -12t-44.5 22l-33 33q-36 38 -31.5 77t45.5 77l113 106q61 55 139 55h29q112 0 112 -112v-570h72q113 0 113 -104v-12q0 -105 -113 -105h-399q-113 0 -113 105z M586.5 36.5q-14.5 36.5 13.5 96.5l588 1247q40 84 131 84h35q54 0 68.5 -36.5t-13.5 -96.5l-588 -1247q-40 -84 -131 -84h-35q-54 0 -68.5 36.5zM1214 264v29q0 40 8 62.5t33 58.5l263 415q48 74 135 74h106q113 0 113 -112v-394h24q95 0 95 -102v-12q0 -105 -95 -105h-24 v-65q0 -113 -113 -113h-28q-113 0 -113 113v65h-291q-113 0 -113 86zM1458 397h160v185q0 23 2 48.5t4 39.5l2 14h-4q-18 -55 -43 -94l-121 -189v-4z" />
<glyph unicode="&#xbd;" horiz-adv-x="2017" d="M74 666v12q0 104 92 104h90v293q0 17 1.5 33.5t2.5 24.5l2 8h-4q-6 -13 -18 -23l-15 -12q-17 -14 -41.5 -12t-44.5 22l-33 33q-36 38 -31 77t46 77l112 106q61 55 140 55h28q113 0 113 -112v-570h72q112 0 112 -104v-12q0 -105 -112 -105h-400q-112 0 -112 105z M584.5 36.5q-14.5 36.5 13.5 96.5l588 1247q40 84 131 84h35q54 0 68.5 -36.5t-13.5 -96.5l-588 -1247q-40 -84 -131 -84h-35q-54 0 -68.5 36.5zM1270 106q0 72 22.5 132.5t58.5 101t79.5 74.5t86.5 59t79 47t58.5 46.5t22.5 51.5q0 33 -27 51.5t-65 18.5q-36 0 -69 -20 t-55.5 -28.5t-47.5 -4t-51 26.5l-14 12q-42 36 -44 75.5t37 75.5q116 99 263 99q48 0 94.5 -10.5t90 -34t76.5 -56.5t52.5 -83t19.5 -109q0 -67 -26.5 -123t-67 -91t-88 -65.5t-89.5 -49.5t-72 -40.5t-35 -40.5h278q113 0 113 -104v-13q0 -104 -113 -104h-455 q-112 0 -112 106z" />
<glyph unicode="&#xbe;" horiz-adv-x="2064" d="M96 1348v12q0 104 113 104h377q112 0 112 -80v-14q0 -38 -12 -65.5t-41 -61.5l-117 -127q100 -25 149.5 -93t49.5 -165q0 -128 -94.5 -222.5t-259.5 -94.5q-146 0 -248 71q-86 54 -27 144l11 16q28 44 63.5 49t81.5 -20q52 -25 102 -25q51 0 81 24t30 62q0 32 -34 53 t-79 21h-14q-77 0 -100 59q-25 61 36 127l66 72q6 8 18.5 20t21.5 20l9 7v4q-42 -4 -69 -4h-113q-113 0 -113 107zM599 36.5q-15 36.5 13 96.5l588 1247q40 84 131 84h35q54 0 68.5 -36.5t-13.5 -96.5l-587 -1247q-40 -84 -132 -84h-34q-54 0 -69 36.5zM1227 264v29 q0 40 8 62.5t33 58.5l262 415q48 74 135 74h107q112 0 112 -112v-394h25q94 0 94 -102v-12q0 -52 -21.5 -78.5t-72.5 -26.5h-25v-65q0 -113 -112 -113h-29q-113 0 -113 113v65h-291q-112 0 -112 86zM1470 397h160v185q0 23 2 48.5t4 39.5l2 14h-4q-18 -55 -43 -94l-121 -189 v-4z" />
<glyph unicode="&#xbf;" horiz-adv-x="978" d="M57 -39q0 63 17 119t45.5 97t62.5 77.5t70 67t67.5 58.5t55 60t31.5 64l6 24q10 41 34 57.5t72 16.5h117q113 0 113 -113v-20q0 -51 -24 -99t-59.5 -83t-77.5 -72.5t-77.5 -68.5t-59.5 -69t-24 -75q0 -52 42.5 -86.5t102.5 -34.5q47 0 107 29q110 54 166 -27l49 -73 q66 -95 -19 -150q-153 -100 -339 -100q-70 0 -138 16t-129.5 49.5t-108.5 80t-74.5 112.5t-27.5 143zM416 860v82q0 113 112 113h99q112 0 112 -113v-82q0 -112 -112 -112h-99q-112 0 -112 112z" />
<glyph unicode="&#xc0;" horiz-adv-x="1339" d="M27 129l424 1243q29 92 127 92h184q98 0 127 -92l424 -1243q20 -58 -5 -93.5t-87 -35.5h-136q-97 0 -127 94l-61 213h-457l-61 -213q-27 -94 -125 -94h-135q-62 0 -87 35.5t-5 93.5zM380.5 1825q15.5 41 86.5 41h94q88 0 133 -80l58 -105q28 -46 15 -84t-67 -38h-73 q-85 0 -138 67l-79 103q-45 55 -29.5 96zM524 594h289l-82 285q-12 41 -26.5 103.5t-23.5 105.5l-9 42h-4q-33 -159 -60 -251z" />
<glyph unicode="&#xc1;" horiz-adv-x="1339" d="M27 129l424 1243q29 92 127 92h184q98 0 127 -92l424 -1243q20 -58 -5 -93.5t-87 -35.5h-136q-97 0 -127 94l-61 213h-457l-61 -213q-27 -94 -125 -94h-135q-62 0 -87 35.5t-5 93.5zM524 594h289l-82 285q-12 41 -26.5 103.5t-23.5 105.5l-9 42h-4q-33 -159 -60 -251z M577.5 1595.5q-18.5 36.5 10.5 87.5l57 103q45 80 133 80h94q71 0 87 -41t-29 -96l-80 -103q-53 -67 -137 -67h-60q-57 0 -75.5 36.5z" />
<glyph unicode="&#xc2;" horiz-adv-x="1339" d="M27 129l424 1243q29 92 127 92h184q98 0 127 -92l424 -1243q20 -58 -5 -93.5t-87 -35.5h-136q-97 0 -127 94l-61 213h-457l-61 -213q-27 -94 -125 -94h-135q-62 0 -87 35.5t-5 93.5zM360.5 1598.5q-13.5 39.5 24.5 97.5l64 96q51 74 137 74h168q86 0 137 -74l63 -96 q38 -58 24.5 -97.5t-71.5 -39.5h-69q-44 0 -67 17t-48 60l-51 90h-4l-52 -90q-26 -44 -48 -60.5t-66 -16.5h-70q-58 0 -71.5 39.5zM524 594h289l-82 285q-12 41 -26.5 103.5t-23.5 105.5l-9 42h-4q-33 -159 -60 -251z" />
<glyph unicode="&#xc3;" horiz-adv-x="1339" d="M27 129l424 1243q29 92 127 92h184q98 0 127 -92l424 -1243q20 -58 -5 -93.5t-87 -35.5h-136q-97 0 -127 94l-61 213h-457l-61 -213q-27 -94 -125 -94h-135q-62 0 -87 35.5t-5 93.5zM268 1653q0 89 65.5 154t164.5 65q55 0 102 -19t74 -42.5t57.5 -42.5t56.5 -19 q59 0 68 61q3 25 28 40.5t66 15.5h25q98 0 98 -88q0 -99 -63 -162.5t-164 -63.5q-46 0 -85.5 12.5t-66.5 31t-50 36.5t-46 30.5t-45 12.5q-30 0 -49.5 -18t-24.5 -47q-9 -51 -88 -51h-24q-47 0 -73 24t-26 70zM524 594h289l-82 285q-12 41 -26.5 103.5t-23.5 105.5l-9 42h-4 q-33 -159 -60 -251z" />
<glyph unicode="&#xc4;" horiz-adv-x="1339" d="M27 129l424 1243q29 92 127 92h184q98 0 127 -92l424 -1243q20 -58 -5 -93.5t-87 -35.5h-136q-97 0 -127 94l-61 213h-457l-61 -213q-27 -94 -125 -94h-135q-62 0 -87 35.5t-5 93.5zM328 1692v61q0 113 112 113h33q113 0 113 -113v-61q0 -113 -113 -113h-33 q-112 0 -112 113zM524 594h289l-82 285q-12 41 -26.5 103.5t-23.5 105.5l-9 42h-4q-33 -159 -60 -251zM756 1692v61q0 113 112 113h33q113 0 113 -113v-61q0 -113 -113 -113h-33q-112 0 -112 113z" />
<glyph unicode="&#xc5;" horiz-adv-x="1339" d="M27 129l424 1243q29 92 127 92h184q98 0 127 -92l424 -1243q20 -58 -5 -93.5t-87 -35.5h-136q-97 0 -127 94l-61 213h-457l-61 -213q-27 -94 -125 -94h-135q-62 0 -87 35.5t-5 93.5zM446 1704q0 85 67 130.5t157 45.5t157.5 -45.5t67.5 -130.5q0 -57 -34.5 -98 t-83.5 -58.5t-107 -17.5q-91 0 -157.5 44.5t-66.5 129.5zM524 594h289l-82 285q-12 41 -26.5 103.5t-23.5 105.5l-9 42h-4q-33 -159 -60 -251zM600 1704q0 -32 19 -52t51 -20t51.5 20t19.5 52q0 34 -19.5 54t-51.5 20q-31 0 -50.5 -20.5t-19.5 -53.5z" />
<glyph unicode="&#xc6;" horiz-adv-x="1902" d="M9 36q-24 36 1 95l520 1247q36 86 132 86h1042q113 0 113 -112v-82q0 -113 -113 -113h-447v-266h334q113 0 113 -113v-82q0 -112 -113 -112h-334v-277h474q112 0 112 -112v-82q0 -113 -112 -113h-719q-113 0 -113 113v477h-344l-193 -502q-37 -88 -129 -88h-137 q-63 0 -87 36zM666 877h233v280h-125z" />
<glyph unicode="&#xc7;" horiz-adv-x="1435" d="M68 735q0 158 57 297t157 240t243.5 159t310.5 58q266 0 469 -139q84 -60 24 -156l-51 -84q-57 -91 -154 -31q-143 82 -272 82q-106 0 -187.5 -35t-130 -95t-72.5 -133t-24 -155q0 -84 25.5 -161t74.5 -140t130.5 -101t183.5 -38q149 0 299 105q96 67 158 -21l57 -80 q64 -93 -18 -157q-201 -159 -463 -173l-11 -51q68 -7 111 -47t43 -117q0 -101 -69.5 -146.5t-170.5 -45.5q-131 0 -131 84q0 42 15.5 65t34.5 23q11 0 28 -2t23 -2q55 0 55 49q0 24 -21.5 35t-62.5 14q-51 3 -29 74l23 72q-301 35 -478 242.5t-177 510.5z" />
<glyph unicode="&#xc8;" horiz-adv-x="1146" d="M141 113v1239q0 112 113 112h692q113 0 113 -112v-82q0 -113 -113 -113h-446v-266h334q112 0 112 -113v-82q0 -112 -112 -112h-334v-277h475q112 0 112 -112v-82q0 -113 -112 -113h-721q-113 0 -113 113zM327 1825q16 41 87 41h94q88 0 133 -80l57 -105q28 -46 15.5 -84 t-66.5 -38h-74q-84 0 -137 67l-80 103q-45 55 -29 96z" />
<glyph unicode="&#xc9;" horiz-adv-x="1146" d="M141 113v1239q0 112 113 112h692q113 0 113 -112v-82q0 -113 -113 -113h-446v-266h334q112 0 112 -113v-82q0 -112 -112 -112h-334v-277h475q112 0 112 -112v-82q0 -113 -112 -113h-721q-113 0 -113 113zM524.5 1595.5q-18.5 36.5 10.5 87.5l57 103q45 80 133 80h94 q71 0 87 -41t-29 -96l-80 -103q-53 -67 -138 -67h-59q-57 0 -75.5 36.5z" />
<glyph unicode="&#xca;" horiz-adv-x="1146" d="M141 113v1239q0 112 113 112h692q113 0 113 -112v-82q0 -113 -113 -113h-446v-266h334q112 0 112 -113v-82q0 -112 -112 -112h-334v-277h475q112 0 112 -112v-82q0 -113 -112 -113h-721q-113 0 -113 113zM307.5 1598.5q-13.5 39.5 24.5 97.5l63 96q51 74 137 74h168 q87 0 138 -74l63 -96q38 -58 24.5 -97.5t-71.5 -39.5h-70q-44 0 -66 16.5t-48 60.5l-52 90h-4l-51 -90q-26 -44 -48 -60.5t-66 -16.5h-70q-58 0 -71.5 39.5z" />
<glyph unicode="&#xcb;" horiz-adv-x="1146" d="M141 113v1239q0 112 113 112h692q113 0 113 -112v-82q0 -113 -113 -113h-446v-266h334q112 0 112 -113v-82q0 -112 -112 -112h-334v-277h475q112 0 112 -112v-82q0 -113 -112 -113h-721q-113 0 -113 113zM274 1692v61q0 113 113 113h33q112 0 112 -113v-61 q0 -113 -112 -113h-33q-113 0 -113 113zM702 1692v61q0 113 113 113h33q113 0 113 -113v-61q0 -113 -113 -113h-33q-113 0 -113 113z" />
<glyph unicode="&#xcc;" horiz-adv-x="641" d="M32 1825q16 41 87 41h94q88 0 133 -80l57 -105q28 -46 15.5 -84t-66.5 -38h-73q-85 0 -138 67l-80 103q-45 55 -29 96zM141 113v1239q0 112 113 112h133q113 0 113 -112v-1239q0 -113 -113 -113h-133q-113 0 -113 113z" />
<glyph unicode="&#xcd;" horiz-adv-x="641" d="M141 113v1239q0 112 113 112h133q113 0 113 -112v-1239q0 -113 -113 -113h-133q-113 0 -113 113zM229.5 1595.5q-18.5 36.5 10.5 87.5l57 103q45 80 133 80h94q71 0 87 -41t-29 -96l-80 -103q-53 -67 -137 -67h-60q-57 0 -75.5 36.5z" />
<glyph unicode="&#xce;" horiz-adv-x="641" d="M12.5 1598.5q-13.5 39.5 24.5 97.5l63 96q51 74 138 74h168q86 0 137 -74l63 -96q38 -58 24.5 -97.5t-71.5 -39.5h-70q-44 0 -66 16.5t-48 60.5l-51 90h-5l-51 -90q-26 -44 -48 -60.5t-66 -16.5h-70q-58 0 -71.5 39.5zM141 113v1239q0 112 113 112h133q113 0 113 -112 v-1239q0 -113 -113 -113h-133q-113 0 -113 113z" />
<glyph unicode="&#xcf;" horiz-adv-x="641" d="M-20 1692v61q0 113 112 113h33q113 0 113 -113v-61q0 -113 -113 -113h-33q-112 0 -112 113zM141 113v1239q0 112 113 112h133q113 0 113 -112v-1239q0 -113 -113 -113h-133q-113 0 -113 113zM408 1692v61q0 113 112 113h33q113 0 113 -113v-61q0 -113 -113 -113h-33 q-112 0 -112 113z" />
<glyph unicode="&#xd0;" horiz-adv-x="1490" d="M29 694v62q0 112 59 112h57v484q0 112 113 112h408q349 0 552 -193t203 -536q0 -344 -203.5 -539.5t-551.5 -195.5h-408q-113 0 -113 113v469h-4q-112 0 -112 112zM504 307h147q189 0 294.5 110t105.5 318q0 205 -107 313.5t-293 108.5h-147v-289h100q113 0 113 -112v-62 q0 -112 -107 -112h-106v-275z" />
<glyph unicode="&#xd1;" horiz-adv-x="1519" d="M141 113v1239q0 112 113 112h160q91 0 135 -75l360 -609q25 -43 56 -105.5t49 -103.5l18 -41h4q-16 158 -16 250v572q0 112 113 112h133q112 0 112 -112v-1239q0 -113 -112 -113h-160q-89 0 -133 76l-363 606q-25 43 -56 105.5t-49 103.5l-18 41h-4q17 -158 17 -250v-569 q0 -113 -113 -113h-133q-113 0 -113 113zM358 1653q0 89 65.5 154t164.5 65q45 0 84 -12.5t66 -31t50 -36.5t46 -30.5t45 -12.5q58 0 67 61q3 25 28 40.5t66 15.5h25q98 0 98 -88q0 -99 -63 -162.5t-164 -63.5q-46 0 -85.5 12.5t-66.5 31t-50 36.5t-46 30.5t-45 12.5 q-30 0 -49.5 -18t-24.5 -47q-9 -51 -88 -51h-24q-47 0 -73 24t-26 70z" />
<glyph unicode="&#xd2;" horiz-adv-x="1662" d="M66 741q0 156 56 294t155 238t243 158t311 58t311 -58t243 -158t155.5 -238t56.5 -294q0 -160 -56.5 -301t-155.5 -243.5t-243 -162t-311 -59.5q-223 0 -398.5 101.5t-271 276t-95.5 388.5zM436 741q0 -189 111.5 -313.5t283.5 -124.5t284 125t112 313q0 181 -112 300.5 t-284 119.5t-283.5 -119.5t-111.5 -300.5zM542 1825q16 41 87 41h94q88 0 133 -80l57 -105q28 -46 15.5 -84t-66.5 -38h-74q-84 0 -137 67l-80 103q-45 55 -29 96z" />
<glyph unicode="&#xd3;" horiz-adv-x="1662" d="M66 741q0 156 56 294t155 238t243 158t311 58t311 -58t243 -158t155.5 -238t56.5 -294q0 -160 -56.5 -301t-155.5 -243.5t-243 -162t-311 -59.5q-223 0 -398.5 101.5t-271 276t-95.5 388.5zM436 741q0 -189 111.5 -313.5t283.5 -124.5t284 125t112 313q0 181 -112 300.5 t-284 119.5t-283.5 -119.5t-111.5 -300.5zM739.5 1595.5q-18.5 36.5 10.5 87.5l57 103q45 80 133 80h94q71 0 87 -41t-29 -96l-80 -103q-53 -67 -138 -67h-59q-57 0 -75.5 36.5z" />
<glyph unicode="&#xd4;" horiz-adv-x="1662" d="M66 741q0 156 56 294t155 238t243 158t311 58t311 -58t243 -158t155.5 -238t56.5 -294q0 -160 -56.5 -301t-155.5 -243.5t-243 -162t-311 -59.5q-223 0 -398.5 101.5t-271 276t-95.5 388.5zM436 741q0 -189 111.5 -313.5t283.5 -124.5t284 125t112 313q0 181 -112 300.5 t-284 119.5t-283.5 -119.5t-111.5 -300.5zM522.5 1598.5q-13.5 39.5 24.5 97.5l63 96q51 74 138 74h167q87 0 138 -74l63 -96q38 -58 24.5 -97.5t-71.5 -39.5h-70q-44 0 -66 16.5t-48 60.5l-51 90h-5l-51 -90q-26 -44 -48 -60.5t-66 -16.5h-70q-58 0 -71.5 39.5z" />
<glyph unicode="&#xd5;" horiz-adv-x="1662" d="M66 741q0 156 56 294t155 238t243 158t311 58t311 -58t243 -158t155.5 -238t56.5 -294q0 -160 -56.5 -301t-155.5 -243.5t-243 -162t-311 -59.5q-223 0 -398.5 101.5t-271 276t-95.5 388.5zM430 1653q0 89 65 154t164 65q45 0 84 -12.5t66 -31t50 -36.5t46 -30.5 t45 -12.5q59 0 68 61q3 25 28 40.5t66 15.5h25q98 0 98 -88q0 -99 -63 -162.5t-164 -63.5q-46 0 -85.5 12.5t-66.5 31t-50 36.5t-46 30.5t-45 12.5q-30 0 -49.5 -18t-24.5 -47q-9 -51 -88 -51h-25q-47 0 -72.5 24t-25.5 70zM436 741q0 -189 111.5 -313.5t283.5 -124.5 t284 125t112 313q0 181 -112 300.5t-284 119.5t-283.5 -119.5t-111.5 -300.5z" />
<glyph unicode="&#xd6;" horiz-adv-x="1662" d="M66 741q0 156 56 294t155 238t243 158t311 58t311 -58t243 -158t155.5 -238t56.5 -294q0 -160 -56.5 -301t-155.5 -243.5t-243 -162t-311 -59.5q-223 0 -398.5 101.5t-271 276t-95.5 388.5zM436 741q0 -189 111.5 -313.5t283.5 -124.5t284 125t112 313q0 181 -112 300.5 t-284 119.5t-283.5 -119.5t-111.5 -300.5zM489 1692v61q0 113 113 113h33q113 0 113 -113v-61q0 -113 -113 -113h-33q-113 0 -113 113zM918 1692v61q0 113 112 113h33q113 0 113 -113v-61q0 -113 -113 -113h-33q-112 0 -112 113z" />
<glyph unicode="&#xd7;" d="M164 270l297 318l-297 319q-76 82 2 160l29 29q40 40 81 39.5t78 -41.5l289 -312l291 312q37 41 78.5 41.5t81.5 -39.5l28 -29q78 -78 2 -160l-299 -319l299 -318q75 -82 -2 -159l-28 -29q-40 -40 -81.5 -39.5t-78.5 41.5l-291 309l-289 -309q-37 -41 -78 -41.5t-81 39.5 l-29 29q-77 77 -2 159z" />
<glyph unicode="&#xd8;" horiz-adv-x="1660" d="M66 741q0 155 58 293.5t158.5 238.5t243 158t305.5 58q200 0 361 -82l18 27q67 88 138 41q72 -51 30 -105l-41 -57q123 -104 191.5 -252.5t68.5 -319.5q0 -213 -98.5 -388t-274.5 -276.5t-393 -101.5q-211 0 -389 99l-28 -41q-66 -91 -138 -41q-73 51 -22 117l49 67 q-114 105 -175.5 250.5t-61.5 314.5zM436 741q0 -157 80 -270l475 655q-75 35 -160 35q-166 0 -280.5 -119.5t-114.5 -300.5zM643 352q87 -49 188 -49q166 0 281 125t115 313q0 164 -99 281z" />
<glyph unicode="&#xd9;" horiz-adv-x="1478" d="M127 539v813q0 112 113 112h133q112 0 112 -112v-813q0 -114 68 -175t186 -61t186 61t68 175v813q0 112 113 112h133q113 0 113 -112v-813q0 -249 -168 -406.5t-443 -157.5q-277 0 -445.5 157t-168.5 407zM450 1825q16 41 87 41h94q88 0 133 -80l57 -105q28 -46 15.5 -84 t-66.5 -38h-74q-84 0 -137 67l-80 103q-45 55 -29 96z" />
<glyph unicode="&#xda;" horiz-adv-x="1478" d="M127 539v813q0 112 113 112h133q112 0 112 -112v-813q0 -114 68 -175t186 -61t186 61t68 175v813q0 112 113 112h133q113 0 113 -112v-813q0 -249 -168 -406.5t-443 -157.5q-277 0 -445.5 157t-168.5 407zM647 1595.5q-19 36.5 10 87.5l58 103q45 80 133 80h94 q71 0 86.5 -41t-29.5 -96l-79 -103q-53 -67 -138 -67h-59q-57 0 -76 36.5z" />
<glyph unicode="&#xdb;" horiz-adv-x="1478" d="M127 539v813q0 112 113 112h133q112 0 112 -112v-813q0 -114 68 -175t186 -61t186 61t68 175v813q0 112 113 112h133q113 0 113 -112v-813q0 -249 -168 -406.5t-443 -157.5q-277 0 -445.5 157t-168.5 407zM430.5 1598.5q-13.5 39.5 24.5 97.5l63 96q51 74 137 74h168 q87 0 138 -74l63 -96q38 -58 24.5 -97.5t-71.5 -39.5h-70q-44 0 -66 16.5t-48 60.5l-52 90h-4l-51 -90q-25 -43 -48 -60t-67 -17h-69q-58 0 -71.5 39.5z" />
<glyph unicode="&#xdc;" horiz-adv-x="1478" d="M127 539v813q0 112 113 112h133q112 0 112 -112v-813q0 -114 68 -175t186 -61t186 61t68 175v813q0 112 113 112h133q113 0 113 -112v-813q0 -249 -168 -406.5t-443 -157.5q-277 0 -445.5 157t-168.5 407zM397 1692v61q0 113 113 113h33q112 0 112 -113v-61 q0 -113 -112 -113h-33q-113 0 -113 113zM825 1692v61q0 113 113 113h33q112 0 112 -113v-61q0 -113 -112 -113h-33q-113 0 -113 113z" />
<glyph unicode="&#xdd;" horiz-adv-x="1230" d="M18 1426q22 38 88 38h162q91 0 131 -84l127 -268q21 -44 43 -97t33 -83l12 -31h4q42 111 89 211l124 268q40 84 132 84h161q66 0 88.5 -38t-10.5 -97l-407 -729v-487q0 -113 -113 -113h-133q-113 0 -113 113v487l-407 729q-33 59 -11 97zM524.5 1595.5 q-18.5 36.5 10.5 87.5l57 103q45 80 133 80h94q71 0 87 -41t-29 -96l-80 -103q-53 -67 -138 -67h-59q-57 0 -75.5 36.5z" />
<glyph unicode="&#xde;" horiz-adv-x="1263" d="M141 113v1239q0 112 113 112h133q113 0 113 -108v-109h250q213 0 345 -141t132 -363q0 -223 -132.5 -365t-344.5 -142h-250v-123q0 -113 -113 -113h-133q-113 0 -113 113zM500 543h176q91 0 138.5 54.5t47.5 145.5q0 90 -46.5 143.5t-133.5 53.5h-182v-397z" />
<glyph unicode="&#xdf;" horiz-adv-x="1269" d="M106 113v966q0 98 44 177.5t118 129.5t167 76.5t194 26.5q93 0 178.5 -28.5t151 -79t104.5 -125.5t39 -162q0 -46 -15 -86.5t-37 -69t-44 -55t-37 -56.5t-15 -61q0 -27 28.5 -56.5t69 -61.5t80.5 -71t68.5 -100t28.5 -133q0 -87 -32.5 -156.5t-88.5 -113t-126.5 -66 t-150.5 -22.5q-93 0 -161 14q-92 17 -92 125v68q0 59 24.5 83t71.5 15q48 -10 98 -10q102 0 102 86q0 25 -28.5 54t-69 60t-81 67.5t-69 91.5t-28.5 118q0 51 23 100t50.5 81t50.5 71.5t23 74.5q0 48 -34 78.5t-93 30.5q-157 0 -157 -139v-942q0 -113 -113 -113h-129 q-113 0 -113 113z" />
<glyph unicode="&#xe0;" horiz-adv-x="1101" d="M33 297q0 82 37.5 146t97 103.5t140 65t159 35.5t162.5 10h30v19q0 61 -42 89t-107 28q-89 0 -191 -48q-104 -44 -151 50l-25 51q-50 101 45 151q177 82 355 82q219 0 345 -114.5t126 -315.5v-536q0 -113 -113 -113h-98q-113 0 -113 115v8l2 20h-4q-4 -7 -12 -18 t-36.5 -40t-61.5 -51.5t-87.5 -40.5t-113.5 -18q-151 0 -247.5 92t-96.5 230zM265.5 1423q15.5 41 86.5 41h94q89 0 134 -80l57 -104q28 -46 15.5 -84.5t-66.5 -38.5h-74q-83 0 -137 68l-80 102q-45 55 -29.5 96zM383 330q0 -39 26 -64.5t74 -25.5q74 0 127.5 59t53.5 127 v29h-33q-44 0 -85 -6.5t-79 -20t-61 -39t-23 -59.5z" />
<glyph unicode="&#xe1;" horiz-adv-x="1101" d="M33 297q0 82 37.5 146t97 103.5t140 65t159 35.5t162.5 10h30v19q0 61 -42 89t-107 28q-89 0 -191 -48q-104 -44 -151 50l-25 51q-50 101 45 151q177 82 355 82q219 0 345 -114.5t126 -315.5v-536q0 -113 -113 -113h-98q-113 0 -113 115v8l2 20h-4q-4 -7 -12 -18 t-36.5 -40t-61.5 -51.5t-87.5 -40.5t-113.5 -18q-151 0 -247.5 92t-96.5 230zM383 330q0 -39 26 -64.5t74 -25.5q74 0 127.5 59t53.5 127v29h-33q-44 0 -85 -6.5t-79 -20t-61 -39t-23 -59.5zM461 1194q-19 37 10 88l57 102q45 80 134 80h94q71 0 86.5 -41t-29.5 -96 l-80 -102q-54 -68 -137 -68h-59q-57 0 -76 37z" />
<glyph unicode="&#xe2;" horiz-adv-x="1101" d="M33 297q0 82 37.5 146t97 103.5t140 65t159 35.5t162.5 10h30v19q0 61 -42 89t-107 28q-89 0 -191 -48q-104 -44 -151 50l-25 51q-50 101 45 151q177 82 355 82q219 0 345 -114.5t126 -315.5v-536q0 -113 -113 -113h-98q-113 0 -113 115v8l2 20h-4q-4 -7 -12 -18 t-36.5 -40t-61.5 -51.5t-87.5 -40.5t-113.5 -18q-151 0 -247.5 92t-96.5 230zM243.5 1196.5q-13.5 39.5 24.5 97.5l64 97q50 73 137 73h168q87 0 137 -73l64 -97q38 -58 24.5 -97.5t-71.5 -39.5h-70q-44 0 -66.5 17t-48.5 61l-51 90h-4l-51 -90q-26 -44 -48.5 -61t-66.5 -17 h-70q-58 0 -71.5 39.5zM383 330q0 -39 26 -64.5t74 -25.5q74 0 127.5 59t53.5 127v29h-33q-44 0 -85 -6.5t-79 -20t-61 -39t-23 -59.5z" />
<glyph unicode="&#xe3;" horiz-adv-x="1101" d="M33 297q0 82 37.5 146t97 103.5t140 65t159 35.5t162.5 10h30v19q0 61 -42 89t-107 28q-89 0 -191 -48q-104 -44 -151 50l-25 51q-50 101 45 151q177 82 355 82q219 0 345 -114.5t126 -315.5v-536q0 -113 -113 -113h-98q-113 0 -113 115v8l2 20h-4q-4 -7 -12 -18 t-36.5 -40t-61.5 -51.5t-87.5 -40.5t-113.5 -18q-151 0 -247.5 92t-96.5 230zM152 1251q0 89 65 154t164 65q55 0 102.5 -19t74 -42t57.5 -42t57 -19q58 0 67 61q3 25 28.5 40t66.5 15h24q98 0 98 -88q0 -99 -63 -162t-164 -63q-46 0 -85.5 12.5t-66.5 30.5t-50 36.5t-46 31 t-45 12.5q-30 0 -49.5 -18.5t-24.5 -47.5q-9 -51 -88 -51h-24q-47 0 -72.5 24t-25.5 70zM383 330q0 -39 26 -64.5t74 -25.5q74 0 127.5 59t53.5 127v29h-33q-44 0 -85 -6.5t-79 -20t-61 -39t-23 -59.5z" />
<glyph unicode="&#xe4;" horiz-adv-x="1101" d="M33 297q0 82 37.5 146t97 103.5t140 65t159 35.5t162.5 10h30v19q0 61 -42 89t-107 28q-89 0 -191 -48q-104 -44 -151 50l-25 51q-50 101 45 151q177 82 355 82q219 0 345 -114.5t126 -315.5v-536q0 -113 -113 -113h-98q-113 0 -113 115v8l2 20h-4q-4 -7 -12 -18 t-36.5 -40t-61.5 -51.5t-87.5 -40.5t-113.5 -18q-151 0 -247.5 92t-96.5 230zM211 1290v62q0 112 113 112h32q113 0 113 -112v-62q0 -112 -113 -112h-32q-113 0 -113 112zM383 330q0 -39 26 -64.5t74 -25.5q74 0 127.5 59t53.5 127v29h-33q-44 0 -85 -6.5t-79 -20t-61 -39 t-23 -59.5zM639 1290v62q0 112 113 112h32q113 0 113 -112v-62q0 -112 -113 -112h-32q-113 0 -113 112z" />
<glyph unicode="&#xe5;" horiz-adv-x="1101" d="M33 297q0 82 37.5 146t97 103.5t140 65t159 35.5t162.5 10h30v19q0 61 -42 89t-107 28q-89 0 -191 -48q-104 -44 -151 50l-25 51q-50 101 45 151q177 82 355 82q219 0 345 -114.5t126 -315.5v-536q0 -113 -113 -113h-98q-113 0 -113 115v8l2 20h-4q-4 -7 -12 -18 t-36.5 -40t-61.5 -51.5t-87.5 -40.5t-113.5 -18q-151 0 -247.5 92t-96.5 230zM330 1303q0 85 66.5 130.5t156.5 45.5t157.5 -45.5t67.5 -130.5t-67 -130t-158 -45q-90 0 -156.5 45t-66.5 130zM383 330q0 -39 26 -64.5t74 -25.5q74 0 127.5 59t53.5 127v29h-33 q-44 0 -85 -6.5t-79 -20t-61 -39t-23 -59.5zM483 1303q0 -32 19 -52t51 -20t52 20t20 52q0 33 -19.5 53t-52.5 20q-31 0 -50.5 -20t-19.5 -53z" />
<glyph unicode="&#xe6;" horiz-adv-x="1716" d="M37 315q0 65 26 118.5t66.5 88.5t97.5 61.5t112.5 41t119 23.5t108 11.5t88.5 2.5h9v14q0 117 -156 117q-84 0 -186 -48q-103 -47 -152 50l-25 49q-24 47 -12.5 87.5t57.5 63.5q164 84 345 84q118 0 196.5 -26t136.5 -78h4q126 104 316 104q152 0 264 -67.5t167.5 -180.5 t55.5 -256q0 -44 -34.5 -80t-84.5 -36h-555q19 -95 87 -142t159 -47q93 0 193 47q50 24 87.5 14.5t63.5 -57.5l29 -51q53 -100 -39 -153q-168 -95 -362 -95q-273 0 -424 185h-4q-10 -17 -27.5 -37.5t-52 -47t-76.5 -47.5t-105.5 -36t-134.5 -15q-152 0 -255 93t-103 245z M393 334q0 -39 26 -63.5t79 -24.5q69 0 120.5 60t51.5 128v25h-35q-59 0 -113 -13t-91.5 -42.5t-37.5 -69.5zM1010 662h309q0 59 -37.5 105t-93.5 46q-139 0 -178 -151z" />
<glyph unicode="&#xe7;" horiz-adv-x="1089" d="M47 528q0 107 39.5 205.5t112 176t185.5 123.5t251 46q198 0 340 -94q42 -27 47.5 -68.5t-23.5 -85.5l-34 -53q-28 -46 -65.5 -52.5t-86.5 19.5q-80 39 -156 39q-119 0 -185 -75t-66 -177q0 -103 69.5 -182.5t194.5 -79.5q91 0 190 60q105 57 154 -39l26 -51 q51 -100 -30 -154q-150 -99 -332 -109l-10 -51q67 -7 110 -47t43 -117q0 -101 -69 -146.5t-170 -45.5q-131 0 -131 84q0 43 15 65.5t34 22.5q11 0 28 -2t23 -2q55 0 55 49q0 24 -21.5 35t-62.5 14q-50 3 -28 74l22 76q-146 23 -254 103t-161.5 193.5t-53.5 245.5z" />
<glyph unicode="&#xe8;" horiz-adv-x="1122" d="M45 528q0 155 65.5 279.5t191.5 198t292 73.5q152 0 264 -67.5t167.5 -180.5t55.5 -256q0 -44 -34 -80t-84 -36h-555q19 -92 87 -140.5t158 -48.5q97 0 193 49q50 24 87.5 14.5t63.5 -57.5l29 -53q53 -100 -39 -153q-168 -95 -362 -95q-137 0 -249 46.5t-183 124.5 t-109.5 176.5t-38.5 205.5zM298.5 1423q15.5 41 86.5 41h94q88 0 133 -80l58 -104q28 -46 15 -84.5t-67 -38.5h-73q-83 0 -137 68l-80 102q-45 55 -29.5 96zM416 662h315q0 67 -39.5 112t-105.5 45q-72 0 -113.5 -43.5t-56.5 -113.5z" />
<glyph unicode="&#xe9;" horiz-adv-x="1122" d="M45 528q0 155 65.5 279.5t191.5 198t292 73.5q152 0 264 -67.5t167.5 -180.5t55.5 -256q0 -44 -34 -80t-84 -36h-555q19 -92 87 -140.5t158 -48.5q97 0 193 49q50 24 87.5 14.5t63.5 -57.5l29 -53q53 -100 -39 -153q-168 -95 -362 -95q-137 0 -249 46.5t-183 124.5 t-109.5 176.5t-38.5 205.5zM416 662h315q0 67 -39.5 112t-105.5 45q-72 0 -113.5 -43.5t-56.5 -113.5zM493 1194q-19 37 11 88l57 102q45 80 133 80h94q71 0 87 -41t-29 -96l-80 -102q-54 -68 -137 -68h-60q-57 0 -76 37z" />
<glyph unicode="&#xea;" horiz-adv-x="1122" d="M45 528q0 155 65.5 279.5t191.5 198t292 73.5q152 0 264 -67.5t167.5 -180.5t55.5 -256q0 -44 -34 -80t-84 -36h-555q19 -92 87 -140.5t158 -48.5q97 0 193 49q50 24 87.5 14.5t63.5 -57.5l29 -53q53 -100 -39 -153q-168 -95 -362 -95q-137 0 -249 46.5t-183 124.5 t-109.5 176.5t-38.5 205.5zM276.5 1196.5q-13.5 39.5 24.5 97.5l64 97q50 73 137 73h168q87 0 137 -73l63 -97q38 -58 24.5 -97.5t-71.5 -39.5h-69q-44 0 -66.5 17t-48.5 61l-51 90h-4l-52 -90q-26 -44 -48 -61t-66 -17h-70q-58 0 -71.5 39.5zM416 662h315q0 67 -39.5 112 t-105.5 45q-72 0 -113.5 -43.5t-56.5 -113.5z" />
<glyph unicode="&#xeb;" horiz-adv-x="1122" d="M45 528q0 155 65.5 279.5t191.5 198t292 73.5q152 0 264 -67.5t167.5 -180.5t55.5 -256q0 -44 -34 -80t-84 -36h-555q19 -92 87 -140.5t158 -48.5q97 0 193 49q50 24 87.5 14.5t63.5 -57.5l29 -53q53 -100 -39 -153q-168 -95 -362 -95q-137 0 -249 46.5t-183 124.5 t-109.5 176.5t-38.5 205.5zM244 1290v62q0 112 112 112h33q113 0 113 -112v-62q0 -112 -113 -112h-33q-112 0 -112 112zM416 662h315q0 67 -39.5 112t-105.5 45q-72 0 -113.5 -43.5t-56.5 -113.5zM672 1290v62q0 112 112 112h33q113 0 113 -112v-62q0 -112 -113 -112h-33 q-112 0 -112 112z" />
<glyph unicode="&#xec;" horiz-adv-x="563" d="M-9 1423q16 41 87 41h94q88 0 133 -80l57 -104q28 -46 15.5 -84.5t-66.5 -38.5h-73q-84 0 -138 68l-80 102q-45 55 -29 96zM104 113v829q0 113 113 113h129q113 0 113 -113v-829q0 -113 -113 -113h-129q-113 0 -113 113z" />
<glyph unicode="&#xed;" horiz-adv-x="563" d="M104 113v829q0 113 113 113h129q113 0 113 -113v-829q0 -113 -113 -113h-129q-113 0 -113 113zM188 1194q-19 37 11 88l57 102q45 80 133 80h94q71 0 87 -41t-29 -96l-80 -102q-54 -68 -137 -68h-60q-57 0 -76 37z" />
<glyph unicode="&#xee;" horiz-adv-x="563" d="M-28.5 1196.5q-13.5 39.5 24.5 97.5l63 97q50 73 138 73h168q87 0 137 -73l63 -97q38 -58 24.5 -97.5t-71.5 -39.5h-69q-44 0 -66.5 17t-48.5 61l-51 90h-4l-52 -90q-26 -44 -48 -61t-66 -17h-70q-58 0 -71.5 39.5zM104 113v829q0 113 113 113h129q113 0 113 -113v-829 q0 -113 -113 -113h-129q-113 0 -113 113z" />
<glyph unicode="&#xef;" horiz-adv-x="563" d="M-61 1290v62q0 112 112 112h33q113 0 113 -112v-62q0 -112 -113 -112h-33q-112 0 -112 112zM104 113v829q0 113 113 113h129q113 0 113 -113v-829q0 -113 -113 -113h-129q-113 0 -113 113zM367 1290v62q0 112 112 112h33q113 0 113 -112v-62q0 -112 -113 -112h-33 q-112 0 -112 112z" />
<glyph unicode="&#xf0;" horiz-adv-x="1185" d="M49 494q0 121 55.5 223.5t165.5 167.5t252 65q44 0 83.5 -10t56.5 -20l18 -9h4q-22 39 -66 81t-94 69l-262 -109q-59 -23 -82.5 -17t-40.5 48l-12 29q-18 40 0.5 64.5t67.5 45.5l124 52q-41 18 -81 30q-110 38 -74 142l22 65q39 103 142 76q203 -56 370 -158l199 82 q60 22 81 15.5t38 -40.5l18 -38q30 -58 -65 -101l-107 -45q260 -250 260 -622q0 -89 -17.5 -172t-59 -163t-103.5 -139t-158 -95t-215 -36q-121 0 -221 43.5t-164.5 116.5t-99.5 165.5t-35 193.5zM406 483q0 -91 41 -152t128 -61q51 0 89 21t59.5 56.5t32 77t10.5 87.5 q0 75 -45 121.5t-125 46.5q-92 0 -141 -56.5t-49 -140.5z" />
<glyph unicode="&#xf1;" horiz-adv-x="1249" d="M104 113v829q0 113 113 113h115q110 0 110 -113v-18l-2 -27h4q45 76 127.5 129t208.5 53q83 0 149.5 -20.5t119.5 -65t81.5 -123t28.5 -186.5v-571q0 -113 -112 -113h-129q-113 0 -113 113v505q0 73 -29 106.5t-88 33.5q-112 0 -170.5 -80t-58.5 -201v-364 q0 -113 -113 -113h-129q-113 0 -113 113zM238 1251q0 89 65 154t164 65q55 0 102.5 -19t74 -42t57.5 -42t57 -19q58 0 67 61q3 25 28.5 40t66.5 15h24q98 0 98 -88q0 -99 -63 -162t-164 -63q-46 0 -85.5 12.5t-66.5 30.5t-50 36.5t-46 31t-45 12.5q-30 0 -49 -18.5 t-24 -47.5q-9 -51 -89 -51h-24q-47 0 -72.5 24t-25.5 70z" />
<glyph unicode="&#xf2;" horiz-adv-x="1286" d="M45 524q0 122 47 226.5t127 176t189.5 112t232.5 40.5q167 0 303 -68.5t216.5 -196.5t80.5 -290q0 -161 -80.5 -287.5t-216 -194t-301.5 -67.5t-301.5 67.5t-216 194t-80.5 287.5zM353.5 1423q15.5 41 86.5 41h95q88 0 133 -80l57 -104q28 -46 15.5 -84.5t-66.5 -38.5 h-74q-83 0 -137 68l-80 102q-45 55 -29.5 96zM403 524q0 -115 70 -184.5t170 -69.5t170 69.5t70 184.5q0 117 -70 188.5t-170 71.5t-170 -71.5t-70 -188.5z" />
<glyph unicode="&#xf3;" horiz-adv-x="1286" d="M45 524q0 122 47 226.5t127 176t189.5 112t232.5 40.5q167 0 303 -68.5t216.5 -196.5t80.5 -290q0 -161 -80.5 -287.5t-216 -194t-301.5 -67.5t-301.5 67.5t-216 194t-80.5 287.5zM403 524q0 -115 70 -184.5t170 -69.5t170 69.5t70 184.5q0 117 -70 188.5t-170 71.5 t-170 -71.5t-70 -188.5zM551 1194q-19 37 10 88l57 102q45 80 134 80h94q71 0 86.5 -41t-29.5 -96l-80 -102q-54 -68 -137 -68h-59q-57 0 -76 37z" />
<glyph unicode="&#xf4;" horiz-adv-x="1286" d="M45 524q0 122 47 226.5t127 176t189.5 112t232.5 40.5q167 0 303 -68.5t216.5 -196.5t80.5 -290q0 -161 -80.5 -287.5t-216 -194t-301.5 -67.5t-301.5 67.5t-216 194t-80.5 287.5zM333.5 1196.5q-13.5 39.5 24.5 97.5l64 97q50 73 137 73h168q87 0 137 -73l64 -97 q38 -58 24.5 -97.5t-71.5 -39.5h-70q-44 0 -66.5 17t-48.5 61l-51 90h-4l-51 -90q-26 -44 -48.5 -61t-66.5 -17h-69q-59 0 -72.5 39.5zM403 524q0 -115 70 -184.5t170 -69.5t170 69.5t70 184.5q0 117 -70 188.5t-170 71.5t-170 -71.5t-70 -188.5z" />
<glyph unicode="&#xf5;" horiz-adv-x="1286" d="M45 524q0 122 47 226.5t127 176t189.5 112t232.5 40.5q167 0 303 -68.5t216.5 -196.5t80.5 -290q0 -161 -80.5 -287.5t-216 -194t-301.5 -67.5t-301.5 67.5t-216 194t-80.5 287.5zM242 1251q0 89 65 154t164 65q55 0 102.5 -19t74 -42t57.5 -42t57 -19q58 0 67 61 q3 25 28.5 40t66.5 15h24q99 0 99 -88q0 -99 -63.5 -162t-164.5 -63q-46 0 -85.5 12.5t-66.5 30.5t-50 36.5t-46 31t-45 12.5q-30 0 -49 -18.5t-24 -47.5q-9 -51 -88 -51h-25q-47 0 -72.5 24t-25.5 70zM403 524q0 -115 70 -184.5t170 -69.5t170 69.5t70 184.5 q0 117 -70 188.5t-170 71.5t-170 -71.5t-70 -188.5z" />
<glyph unicode="&#xf6;" horiz-adv-x="1286" d="M45 524q0 122 47 226.5t127 176t189.5 112t232.5 40.5q167 0 303 -68.5t216.5 -196.5t80.5 -290q0 -161 -80.5 -287.5t-216 -194t-301.5 -67.5t-301.5 67.5t-216 194t-80.5 287.5zM301 1290v62q0 112 113 112h32q113 0 113 -112v-62q0 -112 -113 -112h-32 q-113 0 -113 112zM403 524q0 -115 70 -184.5t170 -69.5t170 69.5t70 184.5q0 117 -70 188.5t-170 71.5t-170 -71.5t-70 -188.5zM729 1290v62q0 112 113 112h32q113 0 113 -112v-62q0 -112 -113 -112h-32q-113 0 -113 112z" />
<glyph unicode="&#xf7;" d="M86 567v41q0 113 113 113h893q112 0 112 -113v-41q0 -112 -112 -112h-893q-113 0 -113 112zM496 113v51q0 112 112 112h74q113 0 113 -112v-51q0 -113 -113 -113h-74q-112 0 -112 113zM496 1014v51q0 113 112 113h74q113 0 113 -113v-51q0 -113 -113 -113h-74 q-112 0 -112 113z" />
<glyph unicode="&#xf8;" horiz-adv-x="1288" d="M47 524q0 122 47 226.5t127 176t189.5 112t232.5 40.5q144 0 268 -53l21 29q65 89 133 45q68 -49 27 -103l-41 -57q91 -75 141.5 -181.5t50.5 -234.5q0 -161 -80.5 -287.5t-216 -194t-301.5 -67.5q-136 0 -254 48l-24 -35q-66 -90 -134 -43q-67 48 -26 104l39 55 q-94 74 -146.5 181.5t-52.5 238.5zM406 524q0 -86 38 -145l283 391q-47 14 -82 14q-100 0 -169.5 -71.5t-69.5 -188.5zM575 279q35 -9 70 -9q100 0 170 69.5t70 184.5q0 74 -33 138z" />
<glyph unicode="&#xf9;" horiz-adv-x="1241" d="M92 371v571q0 113 113 113h129q112 0 112 -113v-506q0 -139 113 -139q109 0 166 82.5t57 208.5v354q0 113 113 113h129q113 0 113 -113v-829q0 -113 -113 -113h-115q-110 0 -110 113v18l2 27h-4q-42 -84 -132.5 -133.5t-197.5 -49.5q-82 0 -147.5 20.5t-118 65.5 t-81 123.5t-28.5 186.5zM325 1423q16 41 87 41h94q88 0 133 -80l57 -104q28 -46 15.5 -84.5t-66.5 -38.5h-74q-83 0 -137 68l-80 102q-45 55 -29 96z" />
<glyph unicode="&#xfa;" horiz-adv-x="1241" d="M92 371v571q0 113 113 113h129q112 0 112 -113v-506q0 -139 113 -139q109 0 166 82.5t57 208.5v354q0 113 113 113h129q113 0 113 -113v-829q0 -113 -113 -113h-115q-110 0 -110 113v18l2 27h-4q-42 -84 -132.5 -133.5t-197.5 -49.5q-82 0 -147.5 20.5t-118 65.5 t-81 123.5t-28.5 186.5zM522 1194q-19 37 10 88l58 102q45 80 133 80h94q71 0 86.5 -41t-29.5 -96l-79 -102q-54 -68 -138 -68h-59q-57 0 -76 37z" />
<glyph unicode="&#xfb;" horiz-adv-x="1241" d="M92 371v571q0 113 113 113h129q112 0 112 -113v-506q0 -139 113 -139q109 0 166 82.5t57 208.5v354q0 113 113 113h129q113 0 113 -113v-829q0 -113 -113 -113h-115q-110 0 -110 113v18l2 27h-4q-42 -84 -132.5 -133.5t-197.5 -49.5q-82 0 -147.5 20.5t-118 65.5 t-81 123.5t-28.5 186.5zM305.5 1196.5q-13.5 39.5 24.5 97.5l63 97q50 73 137 73h168q88 0 138 -73l63 -97q38 -58 24.5 -97.5t-71.5 -39.5h-70q-44 0 -66 17t-48 61l-52 90h-4l-51 -90q-26 -44 -48.5 -61t-66.5 -17h-69q-58 0 -71.5 39.5z" />
<glyph unicode="&#xfc;" horiz-adv-x="1241" d="M92 371v571q0 113 113 113h129q112 0 112 -113v-506q0 -139 113 -139q109 0 166 82.5t57 208.5v354q0 113 113 113h129q113 0 113 -113v-829q0 -113 -113 -113h-115q-110 0 -110 113v18l2 27h-4q-42 -84 -132.5 -133.5t-197.5 -49.5q-82 0 -147.5 20.5t-118 65.5 t-81 123.5t-28.5 186.5zM272 1290v62q0 112 113 112h33q112 0 112 -112v-62q0 -112 -112 -112h-33q-113 0 -113 112zM700 1290v62q0 112 113 112h33q112 0 112 -112v-62q0 -112 -112 -112h-33q-113 0 -113 112z" />
<glyph unicode="&#xfd;" horiz-adv-x="1089" d="M9.5 1018.5q23.5 36.5 88.5 36.5h160q99 0 129 -92l125 -394q8 -25 18 -66t16 -69l5 -28h4q21 100 35 157l106 395q26 97 127 97h150q62 0 87 -35.5t3 -93.5l-385 -1039q-62 -165 -181 -241t-259 -76q-69 0 -148 27q-50 17 -64 57.5t9 89.5l26 59q37 81 115 66 q40 -10 62 -10q46 0 85.5 32t59.5 80l20 49l-391 904q-26 58 -2.5 94.5zM461 1192q-19 37 10 88l57 102q45 80 134 80h94q71 0 86.5 -41t-29.5 -96l-80 -102q-54 -68 -137 -68h-59q-57 0 -76 37z" />
<glyph unicode="&#xfe;" horiz-adv-x="1269" d="M109 -297v1649q0 112 112 112h129q113 0 113 -112v-291l-4 -90h4q97 108 274 108q142 0 253.5 -73t171 -198t59.5 -280t-59.5 -280.5t-171 -199t-253.5 -73.5q-56 0 -104.5 10t-78.5 24.5t-51.5 29.5t-30.5 25l-9 10h-4q4 -37 4 -90v-281q0 -113 -113 -113h-129 q-112 0 -112 113zM453 526q0 -256 213 -256q89 0 143.5 75t54.5 183t-54 182t-144 74q-213 0 -213 -258z" />
<glyph unicode="&#xff;" horiz-adv-x="1089" d="M9.5 1018.5q23.5 36.5 88.5 36.5h160q99 0 129 -92l125 -394q8 -25 18 -66t16 -69l5 -28h4q21 100 35 157l106 395q26 97 127 97h150q62 0 87 -35.5t3 -93.5l-385 -1039q-62 -165 -181 -241t-259 -76q-69 0 -148 27q-50 17 -64 57.5t9 89.5l26 59q37 81 115 66 q40 -10 62 -10q46 0 85.5 32t59.5 80l20 49l-391 904q-26 58 -2.5 94.5zM211 1288v62q0 112 113 112h32q113 0 113 -112v-62q0 -112 -113 -112h-32q-113 0 -113 112zM639 1288v62q0 112 113 112h32q113 0 113 -112v-62q0 -112 -113 -112h-32q-113 0 -113 112z" />
<glyph unicode="&#x152;" horiz-adv-x="1998" d="M57 735q0 154 62.5 293t168.5 238t251 157t305 58q76 0 153.5 -8.5t116.5 -8.5h682q113 0 113 -112v-82q0 -113 -113 -113h-446v-266h333q113 0 113 -113v-82q0 -112 -113 -112h-333v-277h477q112 0 112 -112v-82q0 -113 -112 -113h-713q-39 0 -116.5 -8t-153.5 -8 q-213 0 -394 99.5t-287 272.5t-106 379zM428 735q0 -185 121 -315.5t295 -130.5q40 0 77 3.5t53 7.5l17 3v858q-57 15 -147 15q-174 0 -295 -128.5t-121 -312.5z" />
<glyph unicode="&#x153;" horiz-adv-x="1957" d="M45 524q0 162 78.5 290t211 196.5t294.5 68.5q140 0 232.5 -42t174.5 -122h4q47 52 93.5 84.5t122.5 56t174 23.5q152 0 264 -67.5t167.5 -180.5t55.5 -256q0 -44 -34.5 -80t-84.5 -36h-553q20 -89 88 -139t156 -50q96 0 192 49q50 25 88 15t64 -58l29 -53 q53 -100 -39 -153q-168 -95 -363 -95q-150 0 -242.5 45.5t-168.5 129.5h-5q-54 -55 -105 -90t-130.5 -60t-177.5 -25q-163 0 -296 67.5t-211.5 194t-78.5 287.5zM401 524q0 -115 70 -184.5t170 -69.5t170 69.5t70 184.5q0 117 -70 188.5t-170 71.5t-170 -71.5t-70 -188.5z M1251 662h310q-2 59 -39.5 105t-96.5 46q-74 0 -116.5 -42.5t-57.5 -108.5z" />
<glyph unicode="&#x178;" horiz-adv-x="1230" d="M18 1426q22 38 88 38h162q91 0 131 -84l127 -268q21 -44 43 -97t33 -83l12 -31h4q42 111 89 211l124 268q40 84 132 84h161q66 0 88.5 -38t-10.5 -97l-407 -729v-487q0 -113 -113 -113h-133q-113 0 -113 113v487l-407 729q-33 59 -11 97zM274 1692v61q0 113 113 113h33 q112 0 112 -113v-61q0 -113 -112 -113h-33q-113 0 -113 113zM702 1692v61q0 113 113 113h33q113 0 113 -113v-61q0 -113 -113 -113h-33q-113 0 -113 113z" />
<glyph unicode="&#x2c6;" horiz-adv-x="995" d="M188.5 1598.5q-13.5 39.5 24.5 97.5l63 96q51 74 138 74h168q86 0 137 -74l63 -96q38 -58 24.5 -97.5t-71.5 -39.5h-69q-44 0 -67 17t-48 60l-51 90h-4l-52 -90q-26 -44 -48 -60.5t-66 -16.5h-70q-58 0 -71.5 39.5z" />
<glyph unicode="&#x2dc;" horiz-adv-x="993" d="M94 1653q0 89 65.5 154t164.5 65q55 0 102 -19t74 -42.5t57.5 -42.5t56.5 -19q59 0 68 61q3 25 28 40.5t66 15.5h25q98 0 98 -88q0 -99 -63 -162.5t-164 -63.5q-46 0 -85.5 12.5t-66.5 31t-50 36.5t-46 30.5t-45 12.5q-30 0 -49.5 -18t-24.5 -47q-9 -51 -88 -51h-24 q-47 0 -73 24t-26 70z" />
<glyph unicode="&#x2000;" horiz-adv-x="940" />
<glyph unicode="&#x2001;" horiz-adv-x="1880" />
<glyph unicode="&#x2002;" horiz-adv-x="940" />
<glyph unicode="&#x2003;" horiz-adv-x="1880" />
<glyph unicode="&#x2004;" horiz-adv-x="626" />
<glyph unicode="&#x2005;" horiz-adv-x="470" />
<glyph unicode="&#x2006;" horiz-adv-x="313" />
<glyph unicode="&#x2007;" horiz-adv-x="313" />
<glyph unicode="&#x2008;" horiz-adv-x="235" />
<glyph unicode="&#x2009;" horiz-adv-x="376" />
<glyph unicode="&#x200a;" horiz-adv-x="104" />
<glyph unicode="&#x2010;" horiz-adv-x="843" d="M100 547v82q0 112 113 112h418q112 0 112 -112v-82q0 -113 -112 -113h-418q-113 0 -113 113z" />
<glyph unicode="&#x2011;" horiz-adv-x="843" d="M100 547v82q0 112 113 112h418q112 0 112 -112v-82q0 -113 -112 -113h-418q-113 0 -113 113z" />
<glyph unicode="&#x2012;" horiz-adv-x="843" d="M100 547v82q0 112 113 112h418q112 0 112 -112v-82q0 -113 -112 -113h-418q-113 0 -113 113z" />
<glyph unicode="&#x2013;" horiz-adv-x="1425" d="M102 567v41q0 113 113 113h995q113 0 113 -113v-41q0 -112 -113 -112h-995q-113 0 -113 112z" />
<glyph unicode="&#x2014;" horiz-adv-x="1835" d="M102 567v41q0 113 113 113h1405q113 0 113 -113v-41q0 -112 -113 -112h-1405q-113 0 -113 112z" />
<glyph unicode="&#x2018;" horiz-adv-x="468" d="M63 1102l105 303q34 90 129 90h27q116 0 90 -123l-64 -299q-21 -100 -123 -100h-71q-63 0 -88 35t-5 94z" />
<glyph unicode="&#x2019;" horiz-adv-x="464" d="M68 1096l63 299q21 100 123 100h72q63 0 87.5 -35t4.5 -94l-105 -303q-34 -90 -129 -90h-26q-116 0 -90 123z" />
<glyph unicode="&#x201a;" horiz-adv-x="489" d="M51 -59l64 299q21 100 123 100h71q63 0 87.5 -35t4.5 -94l-104 -303q-34 -90 -129 -90h-27q-116 0 -90 123z" />
<glyph unicode="&#x201c;" horiz-adv-x="876" d="M63 1102l105 303q34 90 129 90h29q116 0 90 -123l-64 -299q-21 -100 -123 -100h-73q-63 0 -88 35t-5 94zM469 1102l104 303q34 90 129 90h29q116 0 90 -123l-63 -299q-21 -100 -123 -100h-74q-63 0 -87.5 35t-4.5 94z" />
<glyph unicode="&#x201d;" horiz-adv-x="872" d="M68 1096l63 299q21 100 123 100h74q63 0 87.5 -35t4.5 -94l-105 -303q-34 -90 -129 -90h-28q-116 0 -90 123zM473 1096l64 299q21 100 122 100h74q63 0 87.5 -35t4.5 -94l-104 -303q-34 -90 -129 -90h-29q-116 0 -90 123z" />
<glyph unicode="&#x201e;" horiz-adv-x="897" d="M51 -59l64 299q21 100 123 100h73q63 0 87.5 -35t4.5 -94l-104 -303q-34 -90 -129 -90h-29q-116 0 -90 123zM457 -59l63 299q21 100 123 100h74q63 0 87.5 -35t4.5 -94l-104 -303q-34 -90 -130 -90h-28q-116 0 -90 123z" />
<glyph unicode="&#x2022;" horiz-adv-x="921" d="M80 596q0 158 111.5 269.5t269.5 111.5t269.5 -111.5t111.5 -269.5t-111.5 -269.5t-269.5 -111.5t-269.5 111.5t-111.5 269.5z" />
<glyph unicode="&#x2026;" horiz-adv-x="1830" d="M90 113v110q0 113 113 113h98q113 0 113 -113v-110q0 -113 -113 -113h-98q-113 0 -113 113zM754 113v110q0 113 112 113h99q112 0 112 -113v-110q0 -113 -112 -113h-99q-112 0 -112 113zM1417 113v110q0 113 113 113h98q113 0 113 -113v-110q0 -113 -113 -113h-98 q-113 0 -113 113z" />
<glyph unicode="&#x202f;" horiz-adv-x="376" />
<glyph unicode="&#x2039;" horiz-adv-x="700" d="M100 498q-64 80 0 159l219 277q53 65 138 65h63q72 0 92 -40.5t-26 -96.5l-226 -284l226 -283q44 -55 29.5 -96t-80.5 -41h-78q-85 0 -138 65z" />
<glyph unicode="&#x203a;" horiz-adv-x="700" d="M82.5 958.5q15.5 40.5 81.5 40.5h78q84 0 137 -65l219 -277q64 -79 0 -159l-219 -275q-53 -65 -137 -65h-64q-72 0 -91 41t26 96l225 283l-225 284q-46 56 -30.5 96.5z" />
<glyph unicode="&#x205f;" horiz-adv-x="470" />
<glyph unicode="&#x20ac;" horiz-adv-x="1247" d="M66 584q0 49 23.5 73.5t78.5 24.5h14q-7 53 -2 98h-10q-104 0 -104 99q0 49 24.5 73.5t79.5 24.5h45q71 228 265.5 370t445.5 142q49 0 123 -8q57 -7 79 -43t7 -92l-29 -107q-26 -97 -109 -88q-38 6 -82 6q-106 0 -187.5 -47t-127.5 -133h315q66 0 91 -24t16 -74 q-9 -53 -36.5 -76t-86.5 -23h-346q-6 -46 4 -98h297q66 0 91 -24.5t16 -73.5q-11 -55 -37.5 -77t-85.5 -22h-215q49 -81 131 -126.5t178 -45.5q44 0 84 6q114 16 131 -88l20 -108q11 -54 -11 -89t-75 -44q-81 -15 -155 -15q-259 0 -447 139t-260 371h-51q-55 0 -78.5 25 t-23.5 74z" />
<glyph unicode="&#x2122;" horiz-adv-x="2037" d="M76 1348v12q0 104 112 104h611q112 0 112 -104v-12q0 -107 -112 -107h-174v-579q0 -113 -113 -113h-33q-112 0 -112 113v579h-179q-112 0 -112 107zM958 666l56 690q9 108 116 108h39q95 0 131 -86l113 -272l27 -90h4q14 59 26 90l113 272q36 86 131 86h39 q108 0 117 -108l51 -690q6 -117 -109 -117h-34q-109 0 -115 108l-14 248l2 66h-4l-70 -168q-36 -88 -129 -88h-12q-93 0 -129 88l-70 168h-4l2 -66l-16 -248q-9 -108 -117 -108h-35q-56 0 -84 30t-25 87z" />
<glyph unicode="&#xe000;" horiz-adv-x="1054" d="M0 0v1055h1055v-1055h-1055z" />
</font>
</defs>
</svg>
