<?xml version="1.0" standalone="no"?>
<!DOCTYPE svg PUBLIC "-//W3C//DTD SVG 1.1//EN" "http://www.w3.org/Graphics/SVG/1.1/DTD/svg11.dtd" >
<svg xmlns="http://www.w3.org/2000/svg">
<metadata></metadata>
<defs>
<font id="museo_sans_rounded700" horiz-adv-x="1267" >
<font-face units-per-em="2048" ascent="1536" descent="-512" />
<missing-glyph horiz-adv-x="512" />
<glyph unicode="&#xfb01;" horiz-adv-x="1208" d="M49 924v34q0 86 84 86h51v35q0 94 32 166.5t77.5 112t104.5 64.5t103 32.5t83 7.5h30q84 0 84 -86v-53q0 -78 -88 -84q-31 -2 -53.5 -7.5t-51.5 -21.5t-45 -51.5t-16 -89.5v-25h551q41 0 63.5 -22.5t22.5 -63.5v-872q0 -86 -86 -86h-90q-84 0 -84 86v752h-377v-752 q0 -86 -86 -86h-90q-84 0 -84 86v752h-51q-84 0 -84 86zM821 1307v61q0 86 84 86h90q41 0 63.5 -22.5t22.5 -63.5v-61q0 -84 -86 -84h-90q-84 0 -84 84z" />
<glyph unicode="&#xfb02;" horiz-adv-x="1265" d="M49 909v35q0 86 84 86h51v49q0 94 32 166.5t77.5 112t104.5 64.5t103 32.5t83 7.5h30q84 0 84 -86v-53q0 -78 -88 -84q-31 -2 -53.5 -7.5t-51.5 -21.5t-45 -51.5t-16 -89.5v-39h140q84 0 84 -86v-35q0 -86 -84 -86h-140v-737q0 -86 -86 -86h-90q-84 0 -84 86v737h-51 q-84 0 -84 86zM819 326v1042q0 86 84 86h90q84 0 84 -86v-1022q0 -69 22.5 -95t59.5 -30q64 -7 64 -74v-69q0 -88 -86 -88q-48 0 -87 6t-84 26.5t-75.5 55.5t-51 98.5t-20.5 149.5z" />
<glyph unicode="&#xfb03;" horiz-adv-x="1902" d="M49 924v34q0 86 84 86h45l6 35q0 94 32 166.5t77.5 112t104.5 64.5t103 32.5t83 7.5h30q84 0 84 -86v-53q0 -78 -88 -84q-31 -2 -53.5 -7.5t-51.5 -21.5t-45 -51.5t-16 -89.5v-25h433v35q0 94 32 166.5t77.5 112t104 64.5t103 32.5t84.5 7.5h29q84 0 84 -86v-53 q0 -78 -88 -84q-31 -2 -53.5 -7.5t-51.5 -21.5t-45 -51.5t-16 -89.5v-25h551q41 0 63.5 -22.5t22.5 -63.5v-872q0 -86 -86 -86h-89q-86 0 -86 86v752h-376v-752q0 -86 -86 -86h-88q-86 0 -86 86v752h-433v-752q0 -86 -86 -86h-90q-84 0 -84 86l-6 752h-45q-84 0 -84 86z M1513 1307v61q0 86 86 86h89q86 0 86 -86v-61q0 -84 -86 -84h-89q-86 0 -86 84z" />
<glyph unicode="&#xfb04;" horiz-adv-x="1957" d="M49 924v34q0 86 86 86h43l6 35q0 94 32 166.5t77.5 112t104.5 64.5t103.5 32.5t84.5 7.5h28q86 0 86 -86v-53q0 -78 -88 -84q-25 -2 -43.5 -4.5t-43.5 -13t-41.5 -27.5t-28 -49.5t-11.5 -75.5v-25h433v35q0 94 32 166.5t77.5 112t104 64.5t103 32.5t84.5 7.5h29 q86 0 86 -86v-53q0 -78 -88 -84q-24 -2 -42 -4.5t-43.5 -13.5t-42 -27.5t-28.5 -49t-12 -75.5v-25h139q86 0 86 -86v-34q0 -86 -74 -86h-151v-752q0 -86 -84 -86h-90q-86 0 -86 86v752h-433v-752q0 -86 -86 -86h-88q-86 0 -86 86l-6 752h-43q-86 0 -86 86zM1513 326v1042 q0 86 84 86h91q84 0 84 -86v-1022q0 -69 22.5 -95t58.5 -30q64 -7 64 -74v-69q0 -88 -88 -88q-47 0 -86 6t-84 26.5t-75 55.5t-50.5 98.5t-20.5 149.5z" />
<glyph horiz-adv-x="2048" />
<glyph horiz-adv-x="2048" />
<glyph unicode="&#xd;" horiz-adv-x="2048" />
<glyph unicode=" "  horiz-adv-x="512" />
<glyph unicode="&#x09;" horiz-adv-x="512" />
<glyph unicode="&#xa0;" horiz-adv-x="512" />
<glyph unicode="!" horiz-adv-x="552" d="M143 1366q0 88 84 88h97q42 0 63.5 -23t20.5 -65l-17 -862q0 -84 -86 -84h-59q-83 0 -86 84zM152 86v72q0 86 84 86h81q41 0 63.5 -22.5t22.5 -63.5v-72q0 -86 -86 -86h-81q-84 0 -84 86z" />
<glyph unicode="&#x22;" horiz-adv-x="724" d="M102 1108v287q0 86 84 86h23q86 0 86 -86v-287q0 -84 -86 -84h-23q-84 0 -84 84zM430 1108v287q0 41 22.5 63.5t63.5 22.5h23q84 0 84 -86v-287q0 -84 -84 -84h-23q-86 0 -86 84z" />
<glyph unicode="#" horiz-adv-x="1425" d="M78 473l4 21q9 75 90 75h166l51 287h-149q-43 0 -63.5 24.5t-14.5 65.5l4 21q12 77 90 77h164l57 332q15 78 94 78h35q44 0 65 -24.5t13 -67.5l-55 -318h278l60 332q12 78 92 78h37q44 0 64 -24.5t14 -67.5l-58 -318h154q44 0 65 -24.5t13 -67.5l-2 -18q-12 -78 -93 -78 h-168l-51 -287h152q44 0 64 -23.5t14 -66.5l-4 -20q-12 -76 -93 -76h-163l-54 -305q-12 -78 -92 -78h-37q-44 0 -65 24.5t-13 67.5l52 291h-281l-51 -305q-15 -78 -94 -78h-37q-43 0 -63.5 24.5t-14.5 67.5l51 291h-149q-44 0 -64.5 23.5t-13.5 66.5zM547 569h278l52 287 h-281z" />
<glyph unicode="$" horiz-adv-x="1124" d="M92 1057q0 157 107 270t278 141v109q0 84 82 84h14q80 0 80 -72v-116q169 -12 297 -103q67 -40 25 -115l-35 -69q-39 -71 -117 -27q-122 76 -245 76q-94 0 -158 -49t-64 -125q0 -39 23.5 -71.5t64 -57.5t92.5 -48.5t109.5 -47.5t114.5 -51t109 -63.5t92.5 -80t64 -105.5 t23.5 -135q0 -161 -106.5 -278t-289.5 -141v-103q0 -86 -80 -86h-14q-82 0 -82 72v117q-195 21 -348 139q-32 23 -35 55t21 64l45 63q48 66 119 19q146 -103 292 -103q89 0 151 45.5t62 130.5q0 39 -23.5 72.5t-63.5 59.5t-92 51t-109.5 50t-115 52.5t-109.5 64t-92 79.5 t-63.5 103t-23.5 130z" />
<glyph unicode="%" horiz-adv-x="1622" d="M80 1155q0 133 97.5 228.5t236.5 95.5q138 0 236 -96t98 -228q0 -135 -98 -229.5t-236 -94.5q-139 0 -236.5 94.5t-97.5 229.5zM193.5 30.5q-14.5 30.5 19.5 73.5l995 1299q39 51 105 51h41q55 0 70 -30.5t-19 -73.5l-995 -1299q-39 -51 -105 -51h-43q-54 0 -68.5 30.5z M279 1155q0 -57 39 -96t96 -39t97 39t40 96q0 56 -40 95.5t-97 39.5t-96 -39.5t-39 -95.5zM874 297q0 133 97.5 228.5t236.5 95.5q138 0 236 -96t98 -228q0 -133 -98 -227.5t-236 -94.5q-139 0 -236.5 94t-97.5 228zM1073 299q0 -57 39 -96t96 -39t97.5 39t40.5 96 q0 56 -40.5 95.5t-97.5 39.5t-96 -39.5t-39 -95.5z" />
<glyph unicode="&#x26;" horiz-adv-x="1335" d="M80 412q0 121 67.5 222t180.5 140v4q-4 2 -10.5 5t-26 15t-37 27.5t-38.5 42t-36.5 57.5t-26 76t-10.5 95q0 125 63 213t165 129t231 41h86q41 0 63.5 -22.5t22.5 -63.5v-52q0 -84 -86 -84h-67q-97 0 -154 -56t-57 -138q0 -34 10.5 -66t34 -61.5t69 -47.5t107.5 -18h231 v105q0 84 86 84h88q86 0 86 -70v-119h103q41 0 63.5 -22.5t22.5 -63.5v-57q0 -41 -22.5 -63.5t-63.5 -22.5h-103v-172q0 -225 -139.5 -359.5t-384.5 -134.5q-231 0 -374.5 124.5t-143.5 312.5zM350 428q0 -90 69 -150.5t179 -60.5q126 0 195 68t69 198v158h-246 q-124 0 -195 -54.5t-71 -158.5z" />
<glyph unicode="'" horiz-adv-x="397" d="M100 1139v256q0 41 22.5 63.5t63.5 22.5h27q84 0 84 -86v-256q0 -86 -84 -86h-27q-86 0 -86 86z" />
<glyph unicode="(" horiz-adv-x="583" d="M88 702q0 402 207 758q18 32 42 45t60 13h39q50 0 66.5 -27.5t-6.5 -73.5q-177 -352 -177 -717q0 -410 183 -794q21 -44 4 -72.5t-66 -28.5h-43q-68 0 -96 52q-213 384 -213 845z" />
<glyph unicode=")" horiz-adv-x="583" d="M77 -165.5q-16 29.5 5 75.5q180 384 180 790q0 373 -176 717q-24 46 -9 73.5t64 27.5h43q69 0 103 -58q209 -360 209 -758q0 -456 -211 -839q-33 -58 -101 -58h-41q-50 0 -66 29.5z" />
<glyph unicode="*" horiz-adv-x="960" d="M88 1149l16 51q14 40 41.5 54t65.5 -3l168 -65l-10 178q-4 43 17.5 66.5t64.5 23.5h57q42 0 63 -23t17 -65l-10 -180l165 65q40 16 69.5 3t41.5 -52l16 -51q25 -84 -57 -102l-176 -48v-4l113 -135q59 -65 -13 -121l-43 -30q-34 -26 -64 -20.5t-52 42.5l-97 150h-4 l-94 -148q-48 -77 -119 -24l-43 30q-34 25 -38 55.5t24 61.5l112 139v4l-169 46q-41 9 -57.5 35.5t-4.5 66.5z" />
<glyph unicode="+" d="M86 569v31q0 86 86 86h356v399q0 41 22.5 63.5t63.5 22.5h41q84 0 84 -86v-399h359q84 0 84 -86v-31q0 -86 -84 -86h-359v-397q0 -86 -84 -86h-41q-86 0 -86 86v397h-356q-86 0 -86 86z" />
<glyph unicode="," horiz-adv-x="499" d="M43 -147l100 340q20 71 97 71h77q47 0 66 -28t0 -72l-141 -342q-26 -66 -99 -66h-26q-47 0 -66.5 26t-7.5 71z" />
<glyph unicode="-" horiz-adv-x="854" d="M119 557v57q0 84 86 84h444q86 0 86 -84v-57q0 -86 -86 -86h-444q-86 0 -86 86z" />
<glyph unicode="." horiz-adv-x="487" d="M113 86v92q0 84 86 84h90q86 0 86 -84v-92q0 -86 -86 -86h-90q-86 0 -86 86z" />
<glyph unicode="/" horiz-adv-x="831" d="M74 10l469 1448q24 70 98 70h45q46 0 65.5 -26t6.5 -70l-469 -1448q-21 -70 -96 -70h-48q-46 0 -65 26t-6 70z" />
<glyph unicode="0" horiz-adv-x="1277" d="M113 729q0 130 16.5 239t55 205t97.5 162.5t150 105t207 38.5t207 -38.5t150.5 -105t98.5 -162.5t55.5 -205t16.5 -239t-16.5 -239.5t-55.5 -206t-98.5 -164t-150.5 -106t-207 -38.5t-207 38.5t-150 106t-97.5 164t-55 206t-16.5 239.5zM383 729q0 -512 256 -512t256 512 q0 506 -256 506t-256 -506z" />
<glyph unicode="1" horiz-adv-x="1007" d="M88 86v57q0 84 84 84h231v807l3 99h-5q-18 -39 -55 -74l-63 -62q-64 -57 -119 4l-39 41q-59 60 2 121l258 248q49 43 107 43h86q84 0 84 -86v-1141h229q86 0 86 -84v-57q0 -86 -86 -86h-719q-84 0 -84 86z" />
<glyph unicode="2" horiz-adv-x="1161" d="M88 86v43q0 106 37.5 198.5t97.5 158.5t132.5 124t145 107t132.5 95.5t97.5 101t37.5 112.5q0 93 -63 148t-158 55q-125 0 -215 -109q-65 -65 -121 -18l-55 43q-68 52 -23 115q28 38 62.5 71t88 69t127.5 57.5t158 21.5q129 0 235 -49.5t172 -148.5t66 -232 q0 -95 -36 -177.5t-93.5 -142.5t-127.5 -113t-140.5 -98.5t-129 -89t-96.5 -95t-40 -106.5h600q86 0 86 -84v-57q0 -86 -86 -86h-799q-41 0 -66.5 22.5t-25.5 63.5z" />
<glyph unicode="3" horiz-adv-x="1146" d="M94 236l41 63q44 66 117 18q132 -92 262 -92q114 0 188 61.5t74 155.5q0 110 -88 168t-223 58h-31q-67 0 -94 59l-8 16q-28 59 18 111l223 264q24 30 50.5 58t40.5 40l14 13v4q-45 -6 -129 -6h-350q-84 0 -84 84v57q0 86 84 86h716q86 0 86 -84v-22q0 -64 -38 -105 l-318 -366q78 -11 148 -43.5t126.5 -84t89.5 -128.5t33 -168q0 -94 -35 -179.5t-98.5 -152.5t-162 -106.5t-216.5 -39.5q-226 0 -419 142q-66 51 -17 119z" />
<glyph unicode="4" horiz-adv-x="1243" d="M41 459v20q0 61 31 105l561 815q35 55 102 55h160q86 0 86 -86v-774h102q86 0 86 -84v-51q0 -84 -69 -84h-119v-289q0 -86 -86 -86h-90q-84 0 -84 86v289h-596q-84 0 -84 84zM319 594h402v450q0 32 2.5 70t4.5 60l3 22h-4q-33 -78 -72 -133l-336 -465v-4z" />
<glyph unicode="5" horiz-adv-x="1146" d="M96 176q-3 32 21 62l41 61q44 67 116 16q114 -90 242 -90q111 0 191.5 68.5t80.5 179.5q0 113 -82 182.5t-208 69.5q-76 0 -168 -37q-65 -22 -115 -4l-18 6q-70 27 -64 103l53 579q6 82 88 82h598q86 0 86 -86v-57q0 -84 -86 -84h-450l-23 -240q-1 -17 -3.5 -34t-4.5 -25 l-2 -8h4q68 32 156 32q234 0 373 -137t139 -340q0 -215 -149 -357.5t-375 -142.5q-229 0 -408 146q-30 23 -33 55z" />
<glyph unicode="6" horiz-adv-x="1226" d="M100 657q0 120 26 237t81 223t132.5 186.5t189 128t241.5 47.5q122 0 219 -33q79 -25 51 -109l-24 -67q-13 -41 -37.5 -52.5t-63.5 -3.5q-74 21 -131 21q-85 0 -154.5 -33t-116 -90.5t-76 -127t-44.5 -150.5h4q38 48 115.5 81t177.5 33q134 0 238 -64t158.5 -169.5 t54.5 -233.5q0 -137 -58.5 -252t-169 -184.5t-251.5 -69.5q-114 0 -215.5 47t-179 132.5t-122.5 216t-45 286.5zM375 561q0 -75 36 -153.5t104 -134.5t147 -56q99 0 159 69.5t60 178.5q0 115 -72 190.5t-207 75.5q-98 0 -162.5 -47t-64.5 -123z" />
<glyph unicode="7" horiz-adv-x="1079" d="M51 1311v57q0 86 84 86h830q86 0 86 -84v-45q0 -55 -25 -104l-582 -1160q-33 -61 -102 -61h-92q-49 0 -66.5 28t4.5 72l496 994q20 40 40.5 73t31.5 47l10 13v4q-22 -4 -94 -4h-537q-84 0 -84 84z" />
<glyph unicode="8" horiz-adv-x="1239" d="M98 412q0 61 19.5 119.5t45 98t61 77t56.5 54.5t42 32q-166 119 -166 290q0 76 29 145.5t84.5 126t146.5 90.5t205 34q208 0 342.5 -108t134.5 -286q0 -65 -20 -129t-51 -112.5t-52.5 -76t-40.5 -46.5q201 -120 201 -315q0 -83 -35.5 -160t-100 -137.5t-164 -97 t-217.5 -36.5q-231 0 -375.5 127t-144.5 310zM362 440q0 -104 75.5 -169.5t183.5 -65.5q100 0 171.5 58t71.5 147q0 26 -8 48.5t-18.5 40t-33.5 35.5t-42 30.5t-55 30t-60.5 28t-71 30.5t-75.5 33q-61 -55 -86 -91q-52 -73 -52 -155zM414 1079q0 -23 4.5 -43.5t18 -39 t24 -32.5t35.5 -30t38.5 -25.5t48 -25.5t49.5 -22.5t56.5 -24t56.5 -23.5l12 17q12 17 17.5 25.5t18 28.5t19 37t15 39.5t12 46.5t3.5 48q0 92 -59 143t-160 51q-100 0 -154.5 -48t-54.5 -122z" />
<glyph unicode="9" horiz-adv-x="1226" d="M86 981q0 136 58.5 249t168.5 181t250 68q115 0 217 -47t179 -132.5t122 -216t45 -286.5q0 -120 -25.5 -236.5t-80.5 -222.5t-132 -186.5t-188.5 -128.5t-242.5 -48q-122 0 -219 33q-80 25 -52 107l25 69q13 40 36.5 51.5t63.5 4.5q85 -23 131 -23q85 0 155 33.5 t116.5 91.5t76 128t44.5 151h-5q-39 -51 -120.5 -84t-176.5 -33q-129 0 -232.5 65.5t-158.5 174t-55 237.5zM348 987q0 -114 71.5 -190t205.5 -76q98 0 162.5 48t64.5 124q0 55 -22 115t-59 110.5t-91.5 83.5t-114.5 33q-99 0 -158 -69t-59 -179z" />
<glyph unicode=":" horiz-adv-x="501" d="M123 86v88q0 86 84 86h88q86 0 86 -86v-88q0 -86 -86 -86h-88q-84 0 -84 86zM123 868v90q0 86 84 86h88q86 0 86 -86v-90q0 -84 -86 -84h-88q-84 0 -84 84z" />
<glyph unicode=";" horiz-adv-x="565" d="M76 -150l86 340q18 74 94 74h78q49 0 67.5 -27t-0.5 -71l-125 -342q-23 -68 -98 -68h-28q-45 0 -65 25.5t-9 68.5zM182 866v92q0 86 84 86h84q41 0 63.5 -22.5t22.5 -63.5v-92q0 -41 -22.5 -63.5t-63.5 -22.5h-84q-84 0 -84 86z" />
<glyph unicode="&#x3c;" d="M115 573v25q0 72 63 100l821 365q44 20 72.5 1.5t28.5 -65.5v-47q0 -71 -68 -98l-643 -266v-4l643 -267q68 -27 68 -98v-47q0 -49 -28.5 -67t-72.5 1l-821 367q-63 25 -63 100z" />
<glyph unicode="=" d="M135 358v31q0 86 84 86h830q86 0 86 -86v-31q0 -84 -86 -84h-830q-84 0 -84 84zM135 780v31q0 84 84 84h830q86 0 86 -84v-31q0 -41 -22.5 -63.5t-63.5 -22.5h-830q-84 0 -84 86z" />
<glyph unicode="&#x3e;" d="M170 172v47q0 72 66 98l643 267v4l-643 266q-66 26 -66 98v47q0 48 27 66t71 -2l822 -365q65 -29 65 -100v-25q0 -74 -65 -100l-822 -364q-44 -20 -71 -2.5t-27 65.5z" />
<glyph unicode="?" horiz-adv-x="960" d="M94 1274q-52 71 15 115q140 94 317 94q117 0 218 -44.5t165.5 -134t64.5 -206.5q0 -65 -18.5 -122t-48 -98.5t-65.5 -78.5t-73.5 -70t-69 -64.5t-54 -70t-27.5 -80.5l-4 -35q-7 -32 -26 -45.5t-56 -13.5h-82q-86 0 -86 84v33q0 61 25 115.5t62.5 92.5t81.5 79t81.5 75 t62.5 79.5t25 94.5q0 72 -57 121t-142 49q-67 0 -151 -41q-82 -43 -123 21zM264 86v72q0 41 22.5 63.5t63.5 22.5h82q84 0 84 -86v-72q0 -86 -84 -86h-82q-86 0 -86 86z" />
<glyph unicode="@" horiz-adv-x="1658" d="M94 492q0 126 38 242.5t109 210.5t165.5 164t213 108t246.5 38q122 0 219 -24t160.5 -65t106 -98.5t60.5 -121.5t18 -137v-512h63q84 0 84 -84v-16q0 -86 -84 -86h-481q-100 0 -184.5 32t-140 85t-86 121.5t-30.5 142.5q0 154 119.5 264t321.5 110h172q-1 79 -88.5 130 t-221.5 51q-145 0 -266 -78t-188.5 -205t-67.5 -272q0 -210 129 -364t344 -181q82 -12 82 -88v-33q0 -42 -23 -64t-65 -18q-214 18 -380 121t-255.5 267t-89.5 360zM829 498q0 -85 55 -143t144 -58h156v401h-152q-91 0 -147 -58t-56 -142z" />
<glyph unicode="A" horiz-adv-x="1298" d="M33 98l454 1286q24 70 97 70h131q75 0 96 -70l455 -1286q7 -19 7 -36q0 -20 -11 -35q-19 -27 -66 -27h-94q-75 0 -96 70l-103 303h-510l-100 -301q-21 -72 -96 -72h-95q-48 0 -66 26q-10 15 -10 35q0 17 7 37zM459 588h379l-129 389q-11 36 -25.5 92.5t-23.5 94.5l-9 38 h-4q-32 -143 -57 -225z" />
<glyph unicode="B" horiz-adv-x="1277" d="M168 86v1282q0 86 84 86h434q201 0 326 -99.5t125 -275.5q0 -102 -46.5 -184.5t-129.5 -126.5v-4q113 -34 173 -129.5t60 -212.5q0 -85 -26.5 -155.5t-72.5 -119t-109.5 -82.5t-137.5 -49.5t-156 -15.5h-440q-84 0 -84 86zM430 227h283q99 0 155 58.5t56 152.5 q0 93 -56.5 151t-154.5 58h-283v-420zM430 860h258q83 0 130.5 53t47.5 134t-47.5 130.5t-136.5 49.5h-252v-367z" />
<glyph unicode="C" horiz-adv-x="1441" d="M82 733q0 157 55.5 294.5t153.5 237t238 157t302 57.5q269 0 476 -146q36 -28 36 -63q0 -26 -20 -56l-37 -59q-25 -40 -61 -40q-25 0 -56 20q-157 102 -327 102q-115 0 -209 -40.5t-154.5 -109.5t-92.5 -159t-32 -191q0 -103 33 -196t94 -165.5t155 -115.5t208 -43 q180 0 356 127q32 23 59 23q34 0 60 -37l41 -56q22 -29 22 -56q0 -33 -34 -62q-225 -181 -514 -181q-224 0 -396.5 100.5t-264 272t-91.5 385.5z" />
<glyph unicode="D" horiz-adv-x="1490" d="M168 86v1282q0 86 84 86h412q340 0 540.5 -192t200.5 -533t-200.5 -535t-540.5 -194h-412q-84 0 -84 86zM430 227h219q225 0 354.5 130t129.5 372q0 239 -130.5 368.5t-353.5 129.5h-219v-1000z" />
<glyph unicode="E" horiz-adv-x="1140" d="M168 86v1282q0 86 84 86h700q41 0 63.5 -22.5t22.5 -63.5v-57q0 -84 -86 -84h-522v-381h406q86 0 86 -84v-57q0 -87 -86 -87h-406v-391h555q86 0 86 -84v-57q0 -86 -86 -86h-733q-84 0 -84 86z" />
<glyph unicode="F" horiz-adv-x="1048" d="M168 86v1282q0 86 84 86h666q41 0 63.5 -22.5t22.5 -63.5v-57q0 -84 -86 -84h-488v-412h397q86 0 86 -84v-57q0 -41 -22.5 -63.5t-63.5 -22.5h-397v-502q0 -86 -84 -86h-94q-84 0 -84 86z" />
<glyph unicode="G" horiz-adv-x="1544" d="M82 721q0 214 97 387.5t269 272t386 98.5q158 0 283 -43t192 -90q37 -29 37 -65q0 -25 -19 -54l-37 -58q-26 -39 -64 -39q-25 0 -55 17q-153 90 -323 90q-116 0 -210.5 -40t-156 -109t-94.5 -160.5t-33 -194.5q0 -112 38 -209t103.5 -164t155 -105t189.5 -38 q68 0 131 16.5t104.5 40t73 47t45.5 39.5l14 17v162h-139q-41 0 -63.5 22.5t-22.5 63.5v55q0 86 86 86h291q84 0 84 -86v-594q0 -86 -84 -86h-51q-40 0 -62 19t-22 51v34l2 35h-4q-6 -7 -17.5 -18t-51.5 -39t-85.5 -50t-119 -39.5t-152.5 -17.5q-144 0 -274 55t-228 151 t-155.5 237t-57.5 303z" />
<glyph unicode="H" horiz-adv-x="1525" d="M168 86v1282q0 86 84 86h94q84 0 84 -86v-530h666v530q0 86 86 86h92q84 0 84 -86v-1282q0 -86 -84 -86h-92q-86 0 -86 86v524h-666v-524q0 -86 -84 -86h-94q-84 0 -84 86z" />
<glyph unicode="I" horiz-adv-x="598" d="M168 86v1282q0 86 84 86h94q84 0 84 -86v-1282q0 -86 -84 -86h-94q-84 0 -84 86z" />
<glyph unicode="J" horiz-adv-x="1095" d="M39 430q0 84 84 84h96q41 0 59 -18.5t23 -63.5q7 -96 53.5 -155.5t137.5 -59.5q82 0 135 53.5t53 163.5v793h-289q-86 0 -86 84v57q0 86 86 86h467q41 0 63.5 -22.5t22.5 -63.5v-938q0 -114 -39 -204t-104 -143t-144 -80.5t-165 -27.5q-87 0 -166 28t-144 82t-104 143.5 t-39 201.5z" />
<glyph unicode="K" horiz-adv-x="1286" d="M168 86v1282q0 86 84 86h94q84 0 84 -86v-506h191l307 533q33 59 100 59h100q51 0 68 -30q7 -12 7 -26q0 -21 -15 -46l-352 -590v-4l378 -656q16 -27 16 -48q0 -14 -7 -25q-17 -29 -68 -29h-113q-67 0 -100 59l-321 576h-191v-549q0 -86 -84 -86h-94q-84 0 -84 86z" />
<glyph unicode="L" horiz-adv-x="1067" d="M168 86v1282q0 86 84 86h94q84 0 84 -86v-1141h543q86 0 86 -84v-57q0 -86 -86 -86h-721q-84 0 -84 86z" />
<glyph unicode="M" horiz-adv-x="1746" d="M121 88l104 1284q9 82 88 82h129q73 0 97 -70l260 -649q15 -38 33 -91.5t29 -87.5l11 -34h5q38 127 71 213l260 649q24 70 99 70h127q82 0 88 -82l104 -1284v-10q0 -35 -18 -55q-22 -23 -64 -23h-92q-82 0 -88 82l-55 731q-3 43 -3 99q0 19 -1 35q0 33 1 56l1 35h-4 q-45 -141 -78 -225l-211 -496q-24 -67 -96 -67h-87q-74 0 -98 67l-209 496q-15 37 -35 94t-33 95l-12 38h-4q2 -52 2 -99q0 -70 -4 -128l-55 -731q-6 -82 -88 -82h-92q-41 0 -63 23q-19 20 -19 55v10z" />
<glyph unicode="N" horiz-adv-x="1521" d="M168 86v1282q0 86 84 86h110q71 0 103 -57l516 -783q24 -38 54.5 -94.5t48.5 -93.5l18 -37h4q-14 139 -14 225v754q0 41 22.5 63.5t63.5 22.5h92q41 0 63.5 -22.5t22.5 -63.5v-1282q0 -86 -86 -86h-111q-68 0 -100 57l-518 781q-24 38 -54 94.5t-49 93.5l-18 37h-4 q14 -139 14 -225v-752q0 -86 -84 -86h-94q-84 0 -84 86z" />
<glyph unicode="O" horiz-adv-x="1667" d="M82 737q0 206 95.5 375.5t268 268t388.5 98.5t388.5 -98.5t267.5 -268t95 -375.5q0 -212 -95 -386t-267.5 -275t-388.5 -101t-388.5 101t-268 275t-95.5 386zM354 737q0 -223 136 -371.5t344 -148.5t343.5 148.5t135.5 371.5q0 214 -135.5 357t-343.5 143t-344 -143 t-136 -357z" />
<glyph unicode="P" horiz-adv-x="1236" d="M168 86v1282q0 86 84 86h475q205 0 334 -131t129 -342q0 -212 -129.5 -345.5t-333.5 -133.5h-297v-416q0 -86 -84 -86h-94q-84 0 -84 86zM430 731h248q116 0 180 67.5t64 182.5q0 114 -63.5 180t-176.5 66h-252v-496z" />
<glyph unicode="Q" horiz-adv-x="1667" d="M82 735q0 155 56.5 292.5t155 236.5t239 157t301.5 58q162 0 302.5 -58t238.5 -157t154 -236.5t56 -292.5q0 -254 -160 -461l99 -92q35 -29 35 -62q0 -28 -27 -59l-37 -38q-32 -34 -62 -34q-26 0 -51 25l-104 105q-193 -144 -444 -144q-162 0 -302.5 59.5t-239 161.5 t-154.5 242t-56 297zM354 735q0 -220 137.5 -369t342.5 -149q146 0 253 78l-100 96q-33 29 -33 61q0 28 27 58l37 39q31 35 62 35q25 0 50 -25l103 -104q80 125 80 280q0 215 -137.5 358.5t-341.5 143.5q-206 0 -343 -143.5t-137 -358.5z" />
<glyph unicode="R" horiz-adv-x="1282" d="M168 86v1282q0 86 84 86h393q189 0 277 -39q113 -47 178 -149.5t65 -247.5q0 -132 -64.5 -242t-176.5 -155v-5q18 -22 47 -75l239 -439q16 -27 16 -48q0 -14 -7 -25q-17 -29 -68 -29h-111q-67 0 -100 59l-256 484h-254v-457q0 -86 -84 -86h-94q-84 0 -84 86zM430 772h238 q106 0 167.5 62.5t61.5 169.5q0 151 -115 198q-55 25 -157 25h-195v-455z" />
<glyph unicode="S" horiz-adv-x="1124" d="M82 193q2 23 22 49l46 65q24 33 52 37q4 1 9 1q25 0 57 -19q152 -107 295 -107q100 0 158.5 46t58.5 120q0 44 -23 80.5t-62.5 63.5t-90.5 52t-107 49t-112 51t-107 62.5t-90.5 78t-62.5 103t-23 132.5q0 125 65 222t176 148.5t249 51.5q116 0 217 -34.5t158 -76.5 q41 -29 41 -68q0 -23 -15 -49l-37 -67q-23 -45 -63 -45q-24 0 -53 16q-39 23 -68 37.5t-80.5 28.5t-103.5 14q-101 0 -161 -45t-60 -119q0 -55 37.5 -97.5t97 -72.5t131.5 -59.5t144.5 -66t132 -82.5t97 -119.5t37.5 -167.5q0 -89 -32.5 -167t-93 -137t-152.5 -93t-203 -34 q-138 0 -256 46.5t-190 101.5q-19 15 -28 31q-7 12 -7 29q-1 5 0 10z" />
<glyph unicode="T" horiz-adv-x="1239" d="M12 1311v57q0 86 86 86h1045q84 0 84 -86v-57q0 -84 -84 -84h-391v-1141q0 -86 -86 -86h-93q-84 0 -84 86v1141h-391q-86 0 -86 84z" />
<glyph unicode="U" horiz-adv-x="1472" d="M152 522v846q0 86 84 86h92q86 0 86 -86v-844q0 -146 86.5 -226.5t234.5 -80.5q149 0 236.5 80.5t87.5 226.5v844q0 86 84 86h94q84 0 84 -86v-846q0 -245 -161 -396t-423 -151q-263 0 -424 151t-161 396z" />
<glyph unicode="V" horiz-adv-x="1306" d="M25 1356q-7 20 -7 37q0 21 10 35q18 26 66 26h109q75 0 96 -72l297 -876q12 -37 26 -90.5t22 -87.5l7 -35h4q27 129 56 213l301 876q18 72 94 72h104q47 0 66 -27q11 -15 11 -35q0 -16 -7 -36l-465 -1288q-23 -68 -96 -68h-131q-73 0 -96 68z" />
<glyph unicode="W" horiz-adv-x="1966" d="M72 1360q-4 16 -4 29q0 23 12 39q20 26 65 26h103q74 0 92 -76l211 -929q8 -36 13.5 -74.5t7.5 -58.5l1 -21h5q7 70 30 154l242 931q21 74 96 74h70q77 0 92 -74l240 -931q10 -37 17.5 -75.5t10.5 -58.5l2 -20h4q7 72 25 154l223 929q15 76 94 76h97q45 0 65 -26 q13 -17 14 -40q0 -13 -4 -28l-333 -1288q-21 -72 -97 -72h-145q-76 0 -94 74l-207 786q-11 42 -21 89.5t-14 74.5l-4 27h-6q-14 -97 -37 -191l-209 -786q-18 -74 -94 -74h-148q-76 0 -94 74z" />
<glyph unicode="X" horiz-adv-x="1245" d="M63 29q-6 11 -6 24q0 22 17 49l389 635l-373 615q-16 27 -16 48q0 12 6 24q16 30 67 30h115q67 0 100 -59l168 -297l91 -178h4q43 92 90 178l170 297q33 59 100 59h115q51 0 67 -30q6 -11 6 -24q0 -21 -16 -48l-375 -615l389 -635q18 -28 18 -49q-1 -13 -7 -24 q-16 -29 -68 -29h-106q-68 0 -101 59l-194 332l-90 172h-5q-41 -88 -88 -172l-192 -332q-33 -59 -100 -59h-105q-53 0 -70 29z" />
<glyph unicode="Y" horiz-adv-x="1187" d="M28 1424q16 30 66 30h115q69 0 98 -63l197 -365q20 -40 42 -89t34 -77l12 -29h4q43 105 88 195l197 365q29 63 98 63h115q51 0 68 -30q6 -11 6 -25q0 -21 -15 -47l-428 -744v-522q0 -86 -84 -86h-92q-86 0 -86 86v522l-426 744q-16 26 -16 48q0 13 7 24z" />
<glyph unicode="Z" horiz-adv-x="1230" d="M63 86v25q0 59 35 108l611 877q25 37 51.5 70t40.5 47l14 14v4q-40 -4 -108 -4h-525q-86 0 -86 84v57q0 41 22.5 63.5t63.5 22.5h881q41 0 62.5 -22t21.5 -62v-24q0 -63 -33 -109l-612 -879q-25 -37 -52 -70t-41 -47l-14 -14v-4q41 4 109 4h567q86 0 86 -84v-57 q0 -86 -86 -86h-921q-87 0 -87 86z" />
<glyph unicode="[" horiz-adv-x="620" d="M147 -109v1543q0 84 86 84h234q86 0 86 -84v-19q0 -41 -21 -63.5t-59 -22.5h-102v-1335h96q41 0 63.5 -22.5t22.5 -63.5v-17q0 -86 -86 -86h-234q-86 0 -86 86z" />
<glyph unicode="\" horiz-adv-x="831" d="M74 1432q-13 44 6 70t65 26h45q75 0 99 -70l467 -1448q15 -44 -4.5 -70t-65.5 -26h-47q-74 0 -98 70z" />
<glyph unicode="]" horiz-adv-x="620" d="M70 -92q0 86 84 86h98v1335h-98q-84 0 -84 86v19q0 84 84 84h235q84 0 84 -84v-1543q0 -86 -84 -86h-235q-84 0 -84 86v17z" />
<glyph unicode="^" d="M174 529.5q-19 27.5 0 70.5l342 789q26 65 98 65h23q74 0 100 -65l340 -789q19 -43 1.5 -70.5t-66.5 -27.5h-45q-73 0 -99 67l-241 611l-244 -611q-23 -67 -98 -67h-43q-49 0 -68 27.5z" />
<glyph unicode="_" horiz-adv-x="1155" d="M2 -86q0 86 86 86h979q84 0 84 -86v-31q0 -84 -84 -84h-979q-86 0 -86 84v31z" />
<glyph unicode="`" horiz-adv-x="1009" d="M353 1798q12 31 65 31h76q65 0 100 -60l72 -124q22 -35 11.5 -65t-52.5 -30h-54q-61 0 -104 52l-92 124q-34 41 -22 72z" />
<glyph unicode="a" horiz-adv-x="1075" d="M49 289q0 63 22 115.5t58 88.5t87 64t104.5 44t116 26.5t115 14t107.5 3.5h43v25q0 96 -53.5 140t-140.5 44q-110 0 -217 -59q-27 -12 -49 -12q-43 0 -66 46l-20 39q-14 27 -14 49q0 40 46 66q167 86 342 86q203 0 318 -109.5t115 -306.5v-567q0 -86 -86 -86h-70 q-84 0 -84 86v41l4 45h-4q-4 -8 -12 -21.5t-37.5 -47.5t-64 -59.5t-92.5 -47t-122 -21.5q-146 0 -246 87.5t-100 226.5zM307 311q0 -56 42 -96.5t116 -40.5q103 0 171.5 86.5t68.5 188.5v38h-43q-60 0 -112.5 -6t-112 -23t-95 -54.5t-35.5 -92.5z" />
<glyph unicode="b" horiz-adv-x="1234" d="M129 86v1282q0 41 22.5 63.5t63.5 22.5h88q86 0 86 -86v-379q0 -23 -1.5 -45t-3.5 -32l-1 -11h4q4 7 11.5 18t36 40t62 51.5t90 40.5t120.5 18q206 0 333 -151.5t127 -393.5q0 -246 -135.5 -397.5t-341.5 -151.5q-66 0 -123 18t-91.5 44t-59.5 52.5t-35 44.5l-10 18h-4 q4 -17 4 -46v-32q0 -35 -22 -54.5t-64 -19.5h-70q-86 0 -86 86zM381 522q0 -136 68.5 -231.5t189.5 -95.5q113 0 188.5 86.5t75.5 236.5q0 147 -71.5 237.5t-186.5 90.5q-110 0 -187 -83t-77 -241z" />
<glyph unicode="c" horiz-adv-x="1085" d="M63 522q0 111 40.5 210.5t113 174t180 118.5t234.5 44q194 0 342 -104q37 -25 37 -59q0 -26 -21 -58l-26 -41q-23 -35 -51 -39q-5 -1 -10 0q-24 0 -54 16q-95 64 -203 64q-142 0 -229.5 -93.5t-87.5 -230.5t89.5 -232t235.5 -95q123 0 234 79q30 17 54 17q39 0 63 -43 l20 -39q15 -27 15 -51q0 -37 -38 -64q-162 -121 -370 -121q-127 0 -234.5 43t-180 117t-113 174t-40.5 213z" />
<glyph unicode="d" horiz-adv-x="1234" d="M68 522q0 247 132 397t341 150q64 0 119 -15.5t88 -37t56.5 -43.5t32.5 -37l9 -16h4q-4 26 -4 59v389q0 86 84 86h90q84 0 84 -86v-1282q0 -86 -84 -86h-76q-84 0 -84 78v41l4 37h-4q-4 -7 -11 -19.5t-35.5 -43.5t-62.5 -55t-93 -43.5t-126 -19.5q-211 0 -337.5 151 t-126.5 396zM330 522q0 -148 72 -237.5t188 -89.5q111 0 186.5 83t75.5 246q0 132 -68 227t-192 95q-111 0 -186.5 -87t-75.5 -237z" />
<glyph unicode="e" horiz-adv-x="1118" d="M66 522q0 242 147.5 394.5t382.5 152.5q217 0 340 -138.5t123 -359.5q0 -35 -26.5 -61.5t-63.5 -26.5h-637q12 -136 100.5 -211t212.5 -75q119 0 225 67q28 14 51 14q40 0 64 -42l25 -41q14 -27 14 -50q0 -39 -43 -65q-166 -105 -354 -105q-168 0 -297.5 75t-196.5 199 t-67 273zM338 641h463q-3 107 -61.5 169t-149.5 62q-99 0 -166 -62.5t-86 -168.5z" />
<glyph unicode="f" horiz-adv-x="692" d="M49 909v35q0 86 84 86h51v49q0 94 32 166.5t77.5 112t104.5 64.5t103 32.5t83 7.5h30q84 0 84 -86v-53q0 -78 -88 -84q-31 -2 -53.5 -7.5t-51.5 -21.5t-45 -51.5t-16 -89.5v-39h140q84 0 84 -86v-35q0 -86 -84 -86h-140v-737q0 -86 -86 -86h-90q-84 0 -84 86v737h-51 q-84 0 -84 86z" />
<glyph unicode="g" horiz-adv-x="1218" d="M70 551q0 108 30.5 201.5t88 164.5t148 111.5t204.5 40.5q68 0 125 -16.5t89.5 -40t55.5 -47t31 -39.5l8 -17h4q-2 11 -2 27v39q0 30 22 49.5t62 19.5h70q84 0 84 -86v-895q0 -104 -31.5 -188.5t-84 -140t-123.5 -93.5t-146.5 -54.5t-155.5 -16.5q-177 0 -305 55 q-55 24 -55 69q0 19 10 42l16 47q17 38 43 49q11 5 26 5q18 0 40 -7q106 -39 211 -39q131 0 212.5 61.5t81.5 192.5v78l5 53h-5q-91 -156 -286 -156q-111 0 -202 42t-149.5 115t-90 169t-31.5 205zM332 561q0 -144 69.5 -232.5t192.5 -88.5q49 0 90 15.5t76.5 49t55.5 95 t20 145.5q0 303 -254 303q-119 0 -184.5 -77.5t-65.5 -209.5z" />
<glyph unicode="h" horiz-adv-x="1226" d="M129 86v1282q0 41 22.5 63.5t63.5 22.5h88q86 0 86 -86v-422q0 -23 -1.5 -45t-3.5 -33l-1 -10h4q43 84 140.5 147.5t222.5 63.5q364 0 364 -397v-586q0 -86 -86 -86h-88q-86 0 -86 86v532q0 104 -36 158.5t-128 54.5q-135 0 -218 -97.5t-83 -248.5v-399q0 -86 -86 -86 h-88q-86 0 -86 86z" />
<glyph unicode="i" horiz-adv-x="516" d="M129 86v872q0 86 84 86h90q84 0 84 -86v-872q0 -86 -84 -86h-90q-84 0 -84 86zM129 1307v61q0 86 84 86h90q41 0 63.5 -22.5t22.5 -63.5v-61q0 -84 -86 -84h-90q-84 0 -84 84z" />
<glyph unicode="j" horiz-adv-x="518" d="M-125 -285q0 45 22 61.5t62 22.5q34 4 58 11.5t52.5 26.5t44 57.5t15.5 95.5v968q0 41 22.5 63.5t63.5 22.5h88q86 0 86 -86v-985q0 -96 -32.5 -171t-78 -116t-104.5 -67.5t-103 -34.5t-81 -8h-31q-84 0 -84 86v53zM129 1307v61q0 41 22.5 63.5t63.5 22.5h90q84 0 84 -86 v-61q0 -84 -84 -84h-90q-86 0 -86 84z" />
<glyph unicode="k" horiz-adv-x="1091" d="M129 86v1282q0 41 22.5 63.5t63.5 22.5h88q86 0 86 -86v-692h129l217 311q35 57 103 57h98q52 0 68 -30q5 -10 5 -22q0 -22 -20 -50l-260 -364v-5l307 -471q17 -28 17 -49q0 -13 -6 -24q-16 -29 -68 -29h-111q-67 0 -100 59l-244 398h-135v-371q0 -86 -86 -86h-88 q-86 0 -86 86z" />
<glyph unicode="l" horiz-adv-x="571" d="M127 326v1042q0 86 84 86h90q84 0 84 -86v-1022q0 -69 22.5 -95t59.5 -30q63 -7 63 -74v-69q0 -88 -86 -88q-48 0 -87 6t-84 26.5t-75 55.5t-50.5 98.5t-20.5 149.5z" />
<glyph unicode="m" horiz-adv-x="1839" d="M129 86v872q0 86 84 86h80q84 0 84 -86v-63l-4 -47h4q44 87 136 154t206 67q239 0 305 -215h4q44 88 141.5 151.5t214.5 63.5q342 0 342 -397v-586q0 -86 -86 -86h-88q-86 0 -86 86v537q0 49 -5.5 83.5t-20.5 64.5t-44 45t-73 15q-84 0 -146 -53.5t-91 -134t-29 -174.5 v-383q0 -86 -84 -86h-90q-86 0 -86 86v537q0 38 -2.5 65.5t-11.5 56t-23.5 46.5t-40.5 29t-62 11q-66 0 -119 -32t-85 -84.5t-49 -115.5t-17 -130v-383q0 -86 -84 -86h-90q-84 0 -84 86z" />
<glyph unicode="n" horiz-adv-x="1226" d="M129 86v872q0 86 84 86h80q84 0 84 -86v-63l-4 -47h4q15 29 35.5 57t54 58.5t72.5 53t93.5 37.5t115.5 15q364 0 364 -397v-586q0 -86 -86 -86h-88q-86 0 -86 86v532q0 104 -36 158.5t-128 54.5q-135 0 -218 -98.5t-83 -243.5v-403q0 -86 -84 -86h-90q-84 0 -84 86z" />
<glyph unicode="o" horiz-adv-x="1273" d="M63 522q0 156 77 282t208.5 195.5t288.5 69.5t288.5 -69.5t209 -195.5t77.5 -282q0 -157 -77.5 -283t-208.5 -195t-289 -69t-288.5 69t-208 195t-77.5 283zM328 522q0 -143 89.5 -234t219.5 -91t220.5 91t90.5 234q0 142 -90.5 234t-220.5 92t-219.5 -92t-89.5 -234z" />
<glyph unicode="p" horiz-adv-x="1234" d="M129 -324v1282q0 41 22.5 63.5t63.5 22.5h66q40 0 62 -19.5t22 -51.5v-47l-3 -41h5q4 7 11.5 19.5t36.5 44.5t63.5 56t95 44t128.5 20q211 0 338 -151t127 -396q0 -246 -135 -396.5t-344 -150.5q-61 0 -114 16.5t-86 40t-57 47t-34 39.5l-10 17h-4q6 -37 6 -90v-369 q0 -86 -86 -86h-88q-86 0 -86 86zM381 516q0 -130 69.5 -225.5t190.5 -95.5q112 0 187 86.5t75 236.5q0 148 -71.5 238t-186.5 90q-111 0 -187.5 -83.5t-76.5 -246.5z" />
<glyph unicode="q" horiz-adv-x="1234" d="M68 522q0 247 133 397t344 150q67 0 125 -17.5t92.5 -43t59 -51t34.5 -43.5l10 -17h4q-4 16 -4 41v37q0 31 22.5 50t63.5 19h68q84 0 84 -86v-1282q0 -86 -84 -86h-90q-84 0 -84 86v379l4 90h-4q-3 -7 -10 -18.5t-33.5 -40.5t-59.5 -51.5t-92 -41t-127 -18.5 q-203 0 -329.5 152t-126.5 395zM330 522q0 -148 72 -237.5t188 -89.5q111 0 186.5 83t75.5 246q0 132 -68 227t-192 95q-111 0 -186.5 -87t-75.5 -237z" />
<glyph unicode="r" horiz-adv-x="768" d="M129 86v872q0 86 84 86h80q41 0 63.5 -22.5t22.5 -63.5v-98l-6 -72h4q34 104 117 184.5t186 80.5q42 0 60 -21t18 -65v-80q0 -41 -23.5 -63.5t-64.5 -22.5q-91 0 -157 -56t-96 -140t-30 -183v-336q0 -86 -84 -86h-90q-84 0 -84 86z" />
<glyph unicode="s" horiz-adv-x="915" d="M64 134q-1 5 0 10q0 27 20 55l25 37q23 32 51 36q5 1 10 1q24 0 55 -17q38 -21 61 -32.5t73.5 -25.5t99.5 -14q67 0 106 28.5t39 78.5q0 34 -28.5 60t-74.5 44.5t-101 37t-110 44.5t-101 60t-74.5 90t-28.5 129q0 148 113.5 230.5t285.5 82.5q156 0 291 -76 q44 -24 44 -64q0 -22 -13 -50l-21 -37q-23 -45 -65 -45q-22 0 -49 12q-115 51 -199 51q-68 0 -104.5 -26.5t-36.5 -75.5q0 -34 28.5 -60.5t74.5 -44.5t101 -36t110 -43.5t101 -59t74.5 -89.5t28.5 -128q0 -140 -109 -231t-288 -91q-192 0 -349 107q-36 20 -40 52z" />
<glyph unicode="t" horiz-adv-x="745" d="M47 909v35q0 86 86 86h60v213q0 41 22.5 63.5t63.5 22.5h81q41 0 63.5 -22.5t22.5 -63.5v-213h152q41 0 63.5 -22.5t22.5 -63.5v-35q0 -86 -84 -86h-154v-405q0 -55 15.5 -94.5t42.5 -59.5t52.5 -28.5t57.5 -12.5q48 -5 67 -23.5t19 -60.5v-63q0 -45 -25.5 -65.5 t-80.5 -20.5q-58 0 -114 12.5t-110 41.5t-94 71.5t-65 109t-25 148.5v450h-55q-84 0 -84 86z" />
<glyph unicode="u" horiz-adv-x="1216" d="M115 373v585q0 41 22.5 63.5t63.5 22.5h88q86 0 86 -86v-532q0 -104 35.5 -158.5t126.5 -54.5q135 0 213.5 102.5t78.5 249.5v393q0 86 86 86h89q41 0 63.5 -22.5t22.5 -63.5v-872q0 -86 -86 -86h-80q-84 0 -84 86v61l4 48h-4q-41 -88 -139.5 -154t-223.5 -66 q-362 0 -362 398z" />
<glyph unicode="v" horiz-adv-x="1064" d="M37 946q-7 21 -7 38q0 20 10 34q18 26 64 26h97q76 0 96 -71l195 -576q9 -27 18.5 -66.5t14.5 -64.5l5 -26h5q16 96 36 157l195 576q20 71 96 71h96q47 0 66 -27q11 -15 11 -35q0 -16 -7 -36l-315 -876q-23 -70 -97 -70h-163q-77 0 -97 70z" />
<glyph unicode="w" horiz-adv-x="1658" d="M45 948q-5 16 -5 30q0 24 13 40q20 26 64 26h98q77 0 92 -75l168 -611l21 -110h4q8 55 22 110l176 611q15 73 95 73h77q77 0 95 -73l174 -611q7 -24 12.5 -51.5t7.5 -42.5l2 -16h4q9 55 23 110l166 611q18 75 94 75h94q44 0 64 -26q12 -16 13 -40q0 -14 -5 -30l-268 -876 q-21 -72 -97 -72h-137q-78 0 -96 74l-158 522q-7 24 -13 52.5t-9 44.5l-2 16h-5q-10 -58 -26 -113l-158 -522q-18 -74 -94 -74h-141q-74 0 -95 72z" />
<glyph unicode="x" horiz-adv-x="1019" d="M63 30q-6 10 -6 22q0 22 19 50l278 426l-270 414q-19 28 -19 50q0 12 6 22q16 30 68 30h105q66 0 100 -61l131 -223l33 -66h4q21 39 33 66l131 223q34 61 100 61h105q52 0 68 -30q6 -10 6 -22q0 -22 -19 -50l-268 -414l278 -426q18 -27 18 -49q0 -13 -6 -23 q-16 -30 -69 -30h-98q-68 0 -101 59l-149 244l-29 55h-4q-15 -32 -29 -55l-147 -244q-36 -59 -101 -59h-100q-52 0 -68 30z" />
<glyph unicode="y" horiz-adv-x="1052" d="M21 1016q18 28 67 28h111q73 0 96 -69l197 -533l38 -141h5q18 82 34 137l185 535q20 71 96 71h102q47 0 66 -27q11 -15 11 -35q0 -17 -7 -36l-430 -1102q-52 -136 -153.5 -205t-223.5 -69q-63 0 -145 31q-36 13 -46 44q-4 11 -4 23q0 21 11 43l18 45q24 50 70 50 q10 0 22 -3q41 -18 74 -18q54 0 97.5 39.5t68.5 99.5l39 92l-397 928q-11 23 -11 42q0 17 9 30z" />
<glyph unicode="z" horiz-adv-x="1044" d="M57 70v20q0 31 8 50.5t29 45.5l432 541q22 26 44 50t33 35l11 11v4q-28 -4 -96 -4h-354q-86 0 -86 86v49q0 86 86 86h717q86 0 86 -69v-21q0 -31 -8 -50.5t-29 -45.5l-432 -543q-21 -26 -43.5 -50t-34.5 -35l-12 -11v-4q30 6 98 6h389q86 0 86 -86v-49q0 -86 -86 -86 h-752q-41 0 -63.5 18t-22.5 52z" />
<glyph unicode="{" horiz-adv-x="702" d="M49 631v80q0 35 15.5 53t52.5 43q43 19 74.5 65.5t31.5 128.5v175q0 84 24.5 149.5t60 101.5t81.5 59.5t81.5 30.5t66.5 7h26q86 0 86 -86v-31q0 -84 -86 -84q-119 0 -119 -174v-215q0 -57 -17.5 -105t-42 -75.5t-49 -46.5t-41.5 -26l-18 -7v-4q7 -2 18 -6.5t40 -24 t51.5 -45.5t40.5 -74.5t18 -107.5v-240q0 -172 119 -172q41 0 63.5 -22.5t22.5 -63.5v-31q0 -41 -22.5 -63.5t-63.5 -22.5h-26q-31 0 -67 7.5t-81.5 30.5t-81 59.5t-60 101.5t-24.5 149v199q0 135 -104 193q-38 22 -54 40.5t-16 53.5z" />
<glyph unicode="|" horiz-adv-x="514" d="M145 -246v1790q0 86 86 86h52q86 0 86 -86v-1790q0 -84 -86 -84h-52q-86 0 -86 84z" />
<glyph unicode="}" horiz-adv-x="704" d="M53 -86q0 41 22.5 63.5t63.5 22.5q119 0 119 172v240q0 59 17.5 107.5t42 75t49 45t41.5 24.5l18 6v4q-7 2 -18 7t-40 25.5t-51.5 47t-40.5 75t-18 105.5v215q0 174 -119 174q-86 0 -86 84v31q0 86 86 86h27q31 0 66.5 -7t81 -30.5t81 -59.5t60 -101.5t24.5 -149.5v-175 q0 -82 31.5 -128.5t75.5 -65.5q37 -24 52 -42.5t15 -53.5v-80q0 -35 -15.5 -53.5t-53.5 -40.5q-105 -58 -105 -193v-199q0 -84 -24.5 -149t-60 -101.5t-81 -59.5t-81 -30.5t-66.5 -7.5h-27q-41 0 -63.5 22.5t-22.5 63.5v31z" />
<glyph unicode="~" horiz-adv-x="1214" d="M104 514q21 133 99.5 199.5t206.5 66.5q57 0 104.5 -19t79.5 -46.5t60 -55t61.5 -46.5t70.5 -19q82 0 115 100q17 41 35.5 59.5t54.5 18.5h41q42 0 65 -24t17 -66q-37 -283 -307 -283q-57 0 -104 19t-79.5 46.5t-61.5 54.5t-63 46t-71 19q-83 0 -111 -101 q-20 -40 -38.5 -57.5t-53.5 -17.5h-41q-44 0 -65.5 27.5t-14.5 78.5z" />
<glyph unicode="&#xa1;" horiz-adv-x="536" d="M135 -324l17 863q0 84 86 84h59q83 0 86 -84l16 -863q0 -88 -84 -88h-96q-42 0 -63.5 23t-20.5 65zM139 885v71q0 86 86 86h82q84 0 84 -86v-71q0 -86 -84 -86h-82q-41 0 -63.5 22.5t-22.5 63.5z" />
<glyph unicode="&#xa2;" horiz-adv-x="1153" d="M86 727q0 222 119.5 383t312.5 195v86q0 86 82 86h14q82 0 82 -68v-104q112 -18 209.5 -90t143.5 -162q39 -76 -45 -111l-78 -31q-21 -8 -37.5 -9t-30 6.5t-22.5 16t-23 25.5q-75 115 -195 115q-121 0 -195.5 -94t-74.5 -248q0 -150 72 -242t196 -92q122 0 197 115 q13 15 22 23.5t24 17.5t29.5 7t37.5 -7l78 -31q83 -36 45 -113q-47 -90 -144.5 -164.5t-208.5 -84.5v-93q0 -84 -82 -84h-14q-82 0 -82 84v93q-193 32 -312.5 192.5t-119.5 382.5z" />
<glyph unicode="&#xa3;" horiz-adv-x="1210" d="M106 86v57q0 84 84 84h43v410h-34q-78 0 -78 82v12q0 84 78 84h34v248q0 181 131 298.5t334 117.5q158 0 299 -95q33 -23 35.5 -54.5t-24.5 -63.5l-39 -52q-47 -58 -121 -16q-75 41 -143 41q-91 0 -147 -52.5t-56 -131.5v-240h276q84 0 84 -84v-12q0 -82 -84 -82h-276 v-410h551q86 0 86 -84v-57q0 -86 -86 -86h-863q-84 0 -84 86z" />
<glyph unicode="&#xa5;" horiz-adv-x="1228" d="M78.5 1425.5q17.5 28.5 66.5 28.5h119q72 0 96 -68l166 -321l88 -234h4q42 121 89 234l163 321q24 68 97 68h116q51 0 69 -28.5t-5 -71.5l-266 -494h116q84 0 84 -72v-12q0 -71 -84 -71h-196l-51 -99v-67h247q84 0 84 -72v-12q0 -74 -84 -74h-247v-295q0 -86 -86 -86h-99 q-84 0 -84 86v295h-250q-84 0 -84 74v12q0 72 84 72h250v67l-53 99h-197q-84 0 -84 71v12q0 72 74 72h127l-264 494q-23 43 -5.5 71.5z" />
<glyph unicode="&#xa7;" horiz-adv-x="958" d="M119 1104q0 165 111.5 270t308.5 105q152 0 276 -78q33 -20 38 -52t-19 -65l-23 -31q-41 -60 -117 -24q-76 37 -153 37q-94 0 -152.5 -47.5t-58.5 -145.5q0 -47 14 -102l119 -594q11 -43 -9 -68.5t-65 -25.5h-31q-77 0 -94 73l-131 631q-14 55 -14 117zM125 68l20 34 q42 63 117 25q77 -43 160 -43q93 0 152 52.5t59 154.5q0 56 -19 117l-110 567q-12 43 7.5 68.5t63.5 25.5h31q77 0 94 -74l129 -630q15 -77 15 -117q0 -166 -112 -270.5t-308 -104.5q-157 0 -277 78q-70 43 -22 117z" />
<glyph unicode="&#xa8;" horiz-adv-x="1009" d="M217 1677v68q0 84 86 84h29q86 0 86 -84v-68q0 -86 -86 -86h-29q-86 0 -86 86zM594 1677v68q0 84 84 84h31q84 0 84 -84v-68q0 -86 -84 -86h-31q-84 0 -84 86z" />
<glyph unicode="&#xa9;" horiz-adv-x="1654" d="M92 727q0 153 57.5 292t155.5 239.5t234 159.5t286 59t287 -59t235.5 -159.5t157 -239.5t58.5 -292t-58.5 -292.5t-157 -240t-235.5 -160t-287 -59.5t-286 59.5t-234 160t-155.5 240t-57.5 292.5zM274 727q0 -162 72.5 -296.5t199 -212t279.5 -77.5t280.5 77.5t201 212 t73.5 296.5q0 161 -73 295t-200.5 211.5t-281.5 77.5t-280.5 -77.5t-198.5 -211.5t-72 -295zM451 723q0 166 109.5 282.5t279.5 116.5q95 0 170.5 -43t113.5 -96q18 -31 14.5 -53t-22.5 -37l-31 -27q-24 -19 -51.5 -13t-48.5 32q-62 67 -141 67q-93 0 -149 -65t-56 -168 q0 -97 55 -161t150 -64q93 0 151 73q46 49 90 13l29 -25q49 -42 8 -94q-42 -52 -114.5 -94.5t-167.5 -42.5q-171 0 -280 116t-109 283z" />
<glyph unicode="&#xaa;" horiz-adv-x="815" d="M111 987q0 223 381 223h16v15q0 106 -117 106q-56 0 -106 -24q-72 -27 -95 24l-6 15q-28 58 47 90q90 39 187 39q132 0 203 -70.5t71 -196.5v-325q0 -86 -78 -86h-6q-78 0 -78 80v28h-4q-2 -5 -6.5 -13t-21.5 -29t-37 -37t-55 -29t-74 -13q-90 0 -155.5 54.5t-65.5 148.5 zM113 610v11q0 63 86 63h415q86 0 86 -63v-11q0 -65 -86 -65h-415q-86 0 -86 65zM295 997q0 -31 22 -50t60 -19q55 0 92 45t37 102v15h-23q-188 0 -188 -93z" />
<glyph unicode="&#xab;" horiz-adv-x="1134" d="M100 518q-50 60 0 119l248 313q43 49 105 49h51q54 0 68.5 -30.5t-19.5 -73.5l-252 -317l252 -316q34 -43 22 -73.5t-63 -30.5h-59q-62 0 -105 49zM561 518q-50 60 0 119l248 313q43 49 104 49h50q55 0 69.5 -30.5t-20.5 -73.5l-252 -317l252 -316q34 -43 23 -73.5 t-62 -30.5h-60q-61 0 -104 49z" />
<glyph unicode="&#xac;" horiz-adv-x="1251" d="M111 780v31q0 84 84 84h829q86 0 86 -84v-432q0 -86 -86 -86h-39q-84 0 -84 86v315h-706q-84 0 -84 86z" />
<glyph unicode="&#xad;" horiz-adv-x="854" d="M119 557v57q0 84 86 84h444q86 0 86 -84v-57q0 -86 -86 -86h-444q-86 0 -86 86z" />
<glyph unicode="&#xae;" horiz-adv-x="1654" d="M92 727q0 153 58 292t156 239.5t233 159.5t284 59q152 0 289 -59t236 -159.5t157 -239.5t58 -292t-58 -292.5t-157 -240t-236 -160t-289 -59.5q-149 0 -284 59.5t-233 160t-156 240t-58 292.5zM274 727q0 -162 72.5 -296.5t198.5 -212t278 -77.5q155 0 283 77.5t201 212 t73 296.5q0 161 -73 295t-201 211.5t-283 77.5q-114 0 -216 -45.5t-175 -123.5t-115.5 -186.5t-42.5 -228.5zM567 442v578q0 86 86 86h226q112 0 178.5 -65t66.5 -173q0 -79 -42 -130t-89 -64v-4q9 -8 27 -43l88 -170q23 -44 10.5 -72.5t-53.5 -28.5h-27q-71 0 -98 64 l-98 213h-101v-191q0 -86 -79 -86h-15q-80 0 -80 86zM741 756h97q52 0 80 29.5t28 82.5q0 54 -27 82.5t-77 28.5h-101v-223z" />
<glyph unicode="&#xaf;" horiz-adv-x="1009" d="M238 1686v14q0 82 84 82h366q86 0 86 -82v-14q0 -82 -86 -82h-366q-84 0 -84 82z" />
<glyph unicode="&#xb0;" horiz-adv-x="802" d="M68 1157q0 133 97 228.5t236 95.5q138 0 236 -96t98 -228q0 -134 -97.5 -227.5t-236.5 -93.5q-140 0 -236.5 93t-96.5 228zM266 1157q0 -57 39 -96t96 -39t97.5 39t40.5 96q0 56 -40.5 95.5t-97.5 39.5t-96 -39.5t-39 -95.5z" />
<glyph unicode="&#xb1;" d="M86 569v31q0 86 86 86h356v399q0 41 22.5 63.5t63.5 22.5h41q84 0 84 -86v-399h359q84 0 84 -86v-31q0 -86 -84 -86h-359v-397q0 -86 -84 -86h-41q-86 0 -86 86v397h-356q-86 0 -86 86zM115 -260q0 86 84 86h870q41 0 63.5 -22.5t22.5 -63.5v-31q0 -84 -86 -84h-870 q-84 0 -84 84v31z" />
<glyph unicode="&#xb2;" horiz-adv-x="751" d="M53 952q0 71 23.5 130.5t61 100.5t82.5 75.5t90 62t82.5 54t61 58t23.5 66.5q0 47 -36 77t-89 30q-50 0 -104 -39q-36 -25 -61 -27t-56 23l-10 8q-31 28 -32.5 58.5t28.5 58.5q107 98 248 98q128 0 218.5 -75.5t90.5 -203.5q0 -69 -29 -126t-72.5 -93t-95.5 -70 t-96.5 -58.5t-76.5 -56.5t-36 -67h334q86 0 86 -80v-10q0 -80 -86 -80h-463q-86 0 -86 86z" />
<glyph unicode="&#xb3;" horiz-adv-x="741" d="M70 1040l10 13q22 32 49 35t61 -17q63 -47 140 -47q61 0 103 37t42 92q0 53 -45 85t-104 32h-23q-60 0 -80 47q-19 49 27 98l115 131q7 9 19.5 21t21.5 20l8 8v4q-41 -6 -72 -6h-180q-84 0 -84 82v11q0 79 84 79h403q86 0 86 -61v-12q0 -30 -9 -50.5t-32 -46.5l-161 -184 q101 -20 162 -87t61 -173q0 -124 -91.5 -214.5t-240.5 -90.5q-147 0 -254 84q-62 42 -16 110z" />
<glyph unicode="&#xb4;" horiz-adv-x="1009" d="M336 1578.5q-15 28.5 8 68.5l72 122q35 60 100 60h74q55 0 67.5 -31t-22.5 -72l-92 -124q-43 -52 -105 -52h-43q-44 0 -59 28.5z" />
<glyph unicode="&#xb5;" horiz-adv-x="1304" d="M158 -324v1282q0 41 22.5 63.5t63.5 22.5h88q86 0 86 -86v-532q0 -104 35.5 -158.5t126.5 -54.5q135 0 213.5 102.5t78.5 249.5v393q0 86 86 86h89q41 0 63.5 -22.5t22.5 -63.5v-872q0 -86 -86 -86h-80q-84 0 -84 86v59l2 48h-4q-16 -32 -44.5 -66t-72.5 -70t-109 -59 t-137 -23q-44 0 -80.5 10.5t-50.5 21.5l-14 11h-4q14 -100 14 -170v-172q0 -86 -84 -86h-55q-86 0 -86 86z" />
<glyph unicode="&#xb6;" horiz-adv-x="1269" d="M70 975q0 201 141 340t340 139h541q84 0 84 -86v-57q0 -84 -84 -84h-351v-1243q0 -86 -84 -86h-20q-84 0 -84 86v510q-199 0 -341 140t-142 341zM868 -16v1044q0 86 86 86h19q86 0 86 -86v-1044q0 -86 -86 -86h-19q-86 0 -86 86z" />
<glyph unicode="&#xb7;" horiz-adv-x="493" d="M121 551v94q0 84 84 84h84q86 0 86 -84v-94q0 -84 -86 -84h-84q-84 0 -84 84z" />
<glyph unicode="&#xb8;" horiz-adv-x="1009" d="M340 -356q0 33 12.5 52t30.5 19q9 0 25.5 -3t25.5 -3q34 0 55 15t21 45q0 49 -92 59q-46 3 -31 63l41 150h129l-29 -131q67 -8 108.5 -47.5t41.5 -108.5q0 -94 -63.5 -137t-157.5 -43q-117 0 -117 70z" />
<glyph unicode="&#xb9;" horiz-adv-x="649" d="M59 946v10q0 80 72 80h115v424q0 15 1.5 29.5t2.5 21.5l2 7h-4q-6 -13 -29 -33l-33 -31q-34 -30 -73 6l-23 23q-55 58 10 116l125 123q49 43 105 43h26q84 0 84 -86v-643h103q84 0 84 -80v-10q0 -80 -84 -80h-400q-84 0 -84 80z" />
<glyph unicode="&#xba;" horiz-adv-x="915" d="M98 1133q0 148 104.5 245t254.5 97q151 0 255.5 -96.5t104.5 -245.5q0 -150 -104.5 -248.5t-255.5 -98.5q-150 0 -254.5 98.5t-104.5 248.5zM129 610v11q0 63 84 63h492q83 0 83 -63v-11q0 -65 -83 -65h-492q-84 0 -84 65zM285 1133q0 -80 50 -131.5t122 -51.5 q73 0 123.5 51.5t50.5 131.5q0 78 -50.5 129t-123.5 51q-72 0 -122 -51t-50 -129z" />
<glyph unicode="&#xbb;" horiz-adv-x="1134" d="M99 968.5q12 30.5 63 30.5h59q62 0 105 -49l247 -313q50 -59 0 -119l-247 -311q-43 -49 -105 -49h-51q-54 0 -68.5 30.5t19.5 73.5l252 316l-252 317q-34 43 -22 73.5zM559.5 968.5q12.5 30.5 63.5 30.5h59q61 0 104 -49l246 -313q50 -59 0 -119l-246 -311 q-43 -49 -104 -49h-51q-55 0 -69 30.5t20 73.5l252 316l-252 317q-35 43 -22.5 73.5z" />
<glyph unicode="&#xbc;" horiz-adv-x="1976" d="M94 637v10q0 80 72 80h115v424q0 15 1.5 29t3.5 21l1 7h-4q-6 -12 -29 -32l-33 -31q-15 -14 -35.5 -12.5t-38.5 18.5l-22 23q-55 58 10 116l125 123q49 43 105 43h26q84 0 84 -86v-643h103q84 0 84 -80v-10q0 -80 -84 -80h-400q-84 0 -84 80zM562 28q-13 28 9 72 l613 1291q29 63 98 63h29q41 0 53.5 -28t-8.5 -72l-613 -1291q-29 -63 -98 -63h-29q-41 0 -54 28zM1176 268v23q0 29 6 45.5t24 44.5l320 463q40 55 102 55h70q41 0 63.5 -22.5t22.5 -63.5v-442h53q72 0 72 -78v-10q0 -80 -72 -80h-53v-117q0 -86 -86 -86h-21q-86 0 -86 86 v117h-331q-84 0 -84 65zM1372 371h219v225q0 24 2 52t4 44l2 17h-4q-24 -56 -53 -97l-170 -237v-4z" />
<glyph unicode="&#xbd;" horiz-adv-x="1943" d="M86 637v10q0 80 72 80h114v424q0 15 2 29t4 21l1 7h-5q-5 -12 -28 -32l-33 -31q-15 -14 -35.5 -12.5t-38.5 18.5l-22 23q-55 58 10 116l125 123q49 43 104 43h27q84 0 84 -86v-643h102q84 0 84 -80v-10q0 -80 -84 -80h-399q-84 0 -84 80zM560 28q-13 28 9 72l613 1291 q29 63 98 63h29q41 0 53.5 -28t-8.5 -72l-613 -1291q-29 -63 -98 -63h-29q-41 0 -54 28zM1229 86q0 71 23.5 130.5t61 100.5t82.5 75.5t90 62t82.5 54t61 58t23.5 66.5q0 47 -36 76.5t-89 29.5q-51 0 -105 -39q-36 -25 -60.5 -27t-55.5 23l-11 9q-66 60 -4 116 q108 99 248 99q128 0 218.5 -75.5t90.5 -203.5q0 -69 -29 -126t-72.5 -93t-95 -70t-96.5 -58.5t-76.5 -56.5t-35.5 -67h334q86 0 86 -80v-10q0 -80 -86 -80h-463q-86 0 -86 86z" />
<glyph unicode="&#xbe;" horiz-adv-x="2000" d="M102 731l11 12q22 32 49 35.5t61 -16.5q63 -47 139 -47q61 0 103.5 37t42.5 92q0 53 -45.5 85t-104.5 32h-22q-60 0 -80 47q-19 49 27 98l114 131q7 9 19.5 21t21.5 20l8 8v4q-40 -6 -71 -6h-180q-84 0 -84 82v10q0 80 84 80h403q86 0 86 -61v-13q0 -30 -9 -50t-32 -46 l-162 -184q101 -20 162.5 -87t61.5 -173q0 -124 -91.5 -214.5t-240.5 -90.5q-147 0 -254 84q-63 42 -17 110zM585 28q-13 28 9 72l612 1291q29 63 99 63h28q41 0 53.5 -28t-8.5 -72l-612 -1291q-29 -63 -98 -63h-29q-41 0 -54 28zM1198 268v23q0 29 6 45t25 45l319 463 q40 55 103 55h69q41 0 63.5 -22.5t22.5 -63.5v-442h54q71 0 71 -78v-10q0 -80 -71 -80h-54v-117q0 -86 -86 -86h-20q-86 0 -86 86v117h-332q-84 0 -84 65zM1395 371h219v225q0 24 2 52t4 44l2 17h-4q-24 -56 -53 -97l-170 -237v-4z" />
<glyph unicode="&#xbf;" horiz-adv-x="956" d="M94 -55q0 65 18.5 122t48 98.5t66 78.5t73.5 69.5t69 64t54.5 70t27.5 80.5l4 35q8 32 26.5 46t55.5 14h81q42 0 64.5 -21.5t22.5 -62.5v-33q0 -72 -35 -134.5t-84.5 -108t-99 -89t-84.5 -96t-35 -109.5q0 -72 56.5 -121t141.5 -49q68 0 152 41q82 44 123 -20l34 -51 q52 -71 -14 -115q-140 -94 -317 -94q-87 0 -167.5 26.5t-143.5 74.5t-100.5 122t-37.5 162zM453 885v71q0 86 84 86h81q87 0 87 -86v-71q0 -41 -23 -63.5t-64 -22.5h-81q-84 0 -84 86z" />
<glyph unicode="&#xc0;" horiz-adv-x="1298" d="M33 98l454 1286q24 70 97 70h131q75 0 96 -70l455 -1286q15 -44 -4 -71t-66 -27h-94q-75 0 -96 70l-103 303h-510l-100 -301q-21 -72 -96 -72h-95q-47 0 -65.5 26.5t-3.5 71.5zM396 1798q12 31 65 31h76q65 0 100 -60l72 -124q22 -35 11.5 -65t-52.5 -30h-54 q-61 0 -104 52l-92 124q-34 41 -22 72zM459 588h379l-129 389q-11 36 -25.5 92.5t-23.5 94.5l-9 38h-4q-32 -143 -57 -225z" />
<glyph unicode="&#xc1;" horiz-adv-x="1298" d="M33 98l454 1286q24 70 97 70h131q75 0 96 -70l455 -1286q15 -44 -4 -71t-66 -27h-94q-75 0 -96 70l-103 303h-510l-100 -301q-21 -72 -96 -72h-95q-47 0 -65.5 26.5t-3.5 71.5zM459 588h379l-129 389q-11 36 -25.5 92.5t-23.5 94.5l-9 38h-4q-32 -143 -57 -225z M580 1578.5q-15 28.5 8 68.5l71 122q35 60 101 60h74q55 0 67.5 -31t-22.5 -72l-93 -124q-43 -52 -104 -52h-43q-44 0 -59 28.5z" />
<glyph unicode="&#xc2;" horiz-adv-x="1298" d="M33 98l454 1286q24 70 97 70h131q75 0 96 -70l455 -1286q15 -44 -4 -71t-66 -27h-94q-75 0 -96 70l-103 303h-510l-100 -301q-21 -72 -96 -72h-95q-47 0 -65.5 26.5t-3.5 71.5zM381 1580.5q-11 30.5 18 74.5l82 119q38 55 105 55h127q66 0 104 -55l82 -119 q29 -44 18 -74.5t-55 -30.5h-53q-34 0 -51.5 13t-38.5 47l-68 106h-4l-69 -106q-18 -33 -36.5 -46.5t-52.5 -13.5h-53q-44 0 -55 30.5zM459 588h379l-129 389q-11 36 -25.5 92.5t-23.5 94.5l-9 38h-4q-32 -143 -57 -225z" />
<glyph unicode="&#xc3;" horiz-adv-x="1298" d="M33 98l454 1286q24 70 97 70h131q75 0 96 -70l455 -1286q15 -44 -4 -71t-66 -27h-94q-75 0 -96 70l-103 303h-510l-100 -301q-21 -72 -96 -72h-95q-47 0 -65.5 26.5t-3.5 71.5zM285 1630q0 85 58 144t149 59q52 0 96.5 -21t69.5 -45.5t55.5 -45.5t58.5 -21q65 0 72 80 q1 22 21.5 34.5t52.5 12.5h20q76 0 76 -70q0 -94 -57.5 -152.5t-149.5 -58.5q-53 0 -97.5 21t-69.5 45.5t-55.5 45.5t-58.5 21q-34 0 -54 -23t-23 -59q-6 -45 -70 -45h-21q-73 0 -73 78zM459 588h379l-129 389q-11 36 -25.5 92.5t-23.5 94.5l-9 38h-4q-32 -143 -57 -225z " />
<glyph unicode="&#xc4;" horiz-adv-x="1298" d="M33 98l454 1286q24 70 97 70h131q75 0 96 -70l455 -1286q15 -44 -4 -71t-66 -27h-94q-75 0 -96 70l-103 303h-510l-100 -301q-21 -72 -96 -72h-95q-47 0 -65.5 26.5t-3.5 71.5zM360 1677v68q0 84 86 84h29q86 0 86 -84v-68q0 -86 -86 -86h-29q-86 0 -86 86zM459 588h379 l-129 389q-11 36 -25.5 92.5t-23.5 94.5l-9 38h-4q-32 -143 -57 -225zM737 1677v68q0 84 84 84h31q84 0 84 -84v-68q0 -86 -84 -86h-31q-84 0 -84 86z" />
<glyph unicode="&#xc5;" horiz-adv-x="1298" d="M33 98l454 1286q24 70 97 70h131q75 0 96 -70l455 -1286q15 -44 -4 -71t-66 -27h-94q-75 0 -96 70l-103 303h-510l-100 -301q-21 -72 -96 -72h-95q-47 0 -65.5 26.5t-3.5 71.5zM455 1686q0 75 57.5 118t136.5 43q78 0 135.5 -43t57.5 -118q0 -74 -58 -117t-135 -43 q-79 0 -136.5 43t-57.5 117zM459 588h379l-129 389q-11 36 -25.5 92.5t-23.5 94.5l-9 38h-4q-32 -143 -57 -225zM580 1686q0 -31 18.5 -50.5t50.5 -19.5q31 0 50.5 19.5t19.5 50.5q0 32 -19.5 51.5t-50.5 19.5t-50 -19.5t-19 -51.5z" />
<glyph unicode="&#xc6;" horiz-adv-x="1816" d="M19 27.5q-19 27.5 1 70.5l535 1291q23 65 98 65h977q84 0 84 -86v-57q0 -84 -84 -84h-522v-381h405q84 0 84 -84v-57q0 -87 -84 -87h-405v-391h553q84 0 84 -84v-57q0 -86 -84 -86h-731q-86 0 -86 86v537h-346l-219 -557q-26 -66 -97 -66h-98q-46 0 -65 27.5zM582 838 h262v389h-107z" />
<glyph unicode="&#xc7;" horiz-adv-x="1445" d="M84 733q0 209 95 379.5t267 268.5t388 98q268 0 475 -146q62 -48 16 -119l-37 -59q-42 -68 -117 -20q-157 102 -327 102q-115 0 -209 -40.5t-154.5 -109.5t-92.5 -159t-32 -191q0 -103 33 -196t94 -165.5t155 -115.5t208 -43q180 0 356 127q72 53 119 -14l41 -56 q50 -65 -12 -118q-208 -168 -478 -179l-14 -67q67 -8 108.5 -47.5t41.5 -108.5q0 -94 -64 -137t-158 -43q-116 0 -116 70q0 33 12.5 52t30.5 19q9 0 25.5 -3t25.5 -3q34 0 55 15t21 45q0 49 -92 59q-46 3 -31 63l24 89q-198 20 -348 123.5t-229.5 267t-79.5 362.5z" />
<glyph unicode="&#xc8;" horiz-adv-x="1140" d="M168 86v1282q0 86 84 86h700q41 0 63.5 -22.5t22.5 -63.5v-57q0 -84 -86 -84h-522v-381h406q86 0 86 -84v-57q0 -87 -86 -87h-406v-391h555q86 0 86 -84v-57q0 -86 -86 -86h-733q-84 0 -84 86zM369 1798q12 31 65 31h76q65 0 100 -60l72 -124q22 -35 11.5 -65t-52.5 -30 h-53q-62 0 -105 52l-92 124q-34 41 -22 72z" />
<glyph unicode="&#xc9;" horiz-adv-x="1140" d="M168 86v1282q0 86 84 86h700q41 0 63.5 -22.5t22.5 -63.5v-57q0 -84 -86 -84h-522v-381h406q86 0 86 -84v-57q0 -87 -86 -87h-406v-391h555q86 0 86 -84v-57q0 -86 -86 -86h-733q-84 0 -84 86zM551 1578.5q-15 28.5 8 68.5l72 122q35 60 100 60h74q55 0 67.5 -31 t-22.5 -72l-92 -124q-43 -52 -105 -52h-43q-44 0 -59 28.5z" />
<glyph unicode="&#xca;" horiz-adv-x="1140" d="M168 86v1282q0 86 84 86h700q41 0 63.5 -22.5t22.5 -63.5v-57q0 -84 -86 -84h-522v-381h406q86 0 86 -84v-57q0 -87 -86 -87h-406v-391h555q86 0 86 -84v-57q0 -86 -86 -86h-733q-84 0 -84 86zM353 1580.5q-11 30.5 18 74.5l82 119q38 55 104 55h127q66 0 104 -55 l82 -119q29 -44 18.5 -74.5t-54.5 -30.5h-54q-34 0 -51.5 13t-38.5 47l-67 106h-5l-69 -106q-19 -33 -37 -46.5t-51 -13.5h-53q-44 0 -55 30.5z" />
<glyph unicode="&#xcb;" horiz-adv-x="1140" d="M168 86v1282q0 86 84 86h700q41 0 63.5 -22.5t22.5 -63.5v-57q0 -84 -86 -84h-522v-381h406q86 0 86 -84v-57q0 -87 -86 -87h-406v-391h555q86 0 86 -84v-57q0 -86 -86 -86h-733q-84 0 -84 86zM334 1677v68q0 84 86 84h29q86 0 86 -84v-68q0 -86 -86 -86h-29 q-86 0 -86 86zM711 1677v68q0 84 84 84h30q84 0 84 -84v-68q0 -86 -84 -86h-30q-84 0 -84 86z" />
<glyph unicode="&#xcc;" horiz-adv-x="598" d="M50 1798q12 31 65 31h75q66 0 101 -60l71 -124q22 -35 12 -65t-52 -30h-54q-61 0 -104 52l-92 124q-34 41 -22 72zM168 86v1282q0 86 84 86h94q84 0 84 -86v-1282q0 -86 -84 -86h-94q-84 0 -84 86z" />
<glyph unicode="&#xcd;" horiz-adv-x="598" d="M168 86v1282q0 86 84 86h94q84 0 84 -86v-1282q0 -86 -84 -86h-94q-84 0 -84 86zM232 1578.5q-15 28.5 8 68.5l71 122q35 60 101 60h73q55 0 67.5 -31t-22.5 -72l-92 -124q-43 -52 -104 -52h-43q-44 0 -59 28.5z" />
<glyph unicode="&#xce;" horiz-adv-x="598" d="M33 1580.5q-11 30.5 18 74.5l82 119q38 55 105 55h127q66 0 104 -55l82 -119q29 -44 18 -74.5t-55 -30.5h-53q-34 0 -51.5 13t-38.5 47l-68 106h-4l-70 -106q-19 -33 -37 -46.5t-51 -13.5h-53q-44 0 -55 30.5zM168 86v1282q0 86 84 86h94q84 0 84 -86v-1282 q0 -86 -84 -86h-94q-84 0 -84 86z" />
<glyph unicode="&#xcf;" horiz-adv-x="598" d="M14 1677v68q0 84 86 84h29q86 0 86 -84v-68q0 -86 -86 -86h-29q-86 0 -86 86zM168 86v1282q0 86 84 86h94q84 0 84 -86v-1282q0 -86 -84 -86h-94q-84 0 -84 86zM391 1677v68q0 84 84 84h31q84 0 84 -84v-68q0 -86 -84 -86h-31q-84 0 -84 86z" />
<glyph unicode="&#xd0;" horiz-adv-x="1492" d="M51 702v43q0 86 51 86h68v537q0 86 86 86h410q340 0 540.5 -192t200.5 -533t-200.5 -535t-540.5 -194h-410q-86 0 -86 86v530h-33q-86 0 -86 86zM432 227h219q225 0 354.5 130t129.5 372q0 239 -130.5 368.5t-353.5 129.5h-219v-396h186q84 0 84 -86v-43q0 -86 -79 -86 h-191v-389z" />
<glyph unicode="&#xd1;" horiz-adv-x="1521" d="M168 86v1282q0 86 84 86h110q71 0 103 -57l516 -783q24 -38 54.5 -94.5t48.5 -93.5l18 -37h4q-14 139 -14 225v754q0 41 22.5 63.5t63.5 22.5h92q41 0 63.5 -22.5t22.5 -63.5v-1282q0 -86 -86 -86h-111q-68 0 -100 57l-518 781q-24 38 -54 94.5t-49 93.5l-18 37h-4 q14 -139 14 -225v-752q0 -86 -84 -86h-94q-84 0 -84 86zM397 1630q0 85 58 144t149 59q52 0 96.5 -21t69.5 -45.5t56 -45.5t59 -21q64 0 71 80q1 22 21.5 34.5t52.5 12.5h21q75 0 75 -70q0 -94 -57 -152.5t-149 -58.5q-53 0 -97.5 21t-69.5 45.5t-55.5 45.5t-58.5 21 q-34 0 -54.5 -23t-23.5 -59q-6 -45 -69 -45h-21q-74 0 -74 78z" />
<glyph unicode="&#xd2;" horiz-adv-x="1667" d="M82 737q0 206 95.5 375.5t268 268t388.5 98.5t388.5 -98.5t267.5 -268t95 -375.5q0 -212 -95 -386t-267.5 -275t-388.5 -101t-388.5 101t-268 275t-95.5 386zM354 737q0 -223 136 -371.5t344 -148.5t343.5 148.5t135.5 371.5q0 214 -135.5 357t-343.5 143t-344 -143 t-136 -357zM580 1798q12 31 65 31h76q65 0 100 -60l72 -124q22 -35 11.5 -65t-52.5 -30h-53q-62 0 -105 52l-92 124q-34 41 -22 72z" />
<glyph unicode="&#xd3;" horiz-adv-x="1667" d="M82 737q0 206 95.5 375.5t268 268t388.5 98.5t388.5 -98.5t267.5 -268t95 -375.5q0 -212 -95 -386t-267.5 -275t-388.5 -101t-388.5 101t-268 275t-95.5 386zM354 737q0 -223 136 -371.5t344 -148.5t343.5 148.5t135.5 371.5q0 214 -135.5 357t-343.5 143t-344 -143 t-136 -357zM764 1578.5q-15 28.5 8 68.5l72 122q35 60 100 60h74q55 0 67.5 -31t-22.5 -72l-92 -124q-43 -52 -105 -52h-43q-44 0 -59 28.5z" />
<glyph unicode="&#xd4;" horiz-adv-x="1667" d="M82 737q0 206 95.5 375.5t268 268t388.5 98.5t388.5 -98.5t267.5 -268t95 -375.5q0 -212 -95 -386t-267.5 -275t-388.5 -101t-388.5 101t-268 275t-95.5 386zM354 737q0 -223 136 -371.5t344 -148.5t343.5 148.5t135.5 371.5q0 214 -135.5 357t-343.5 143t-344 -143 t-136 -357zM566 1580.5q-11 30.5 18 74.5l82 119q38 55 104 55h127q66 0 104 -55l82 -119q29 -44 18.5 -74.5t-54.5 -30.5h-54q-34 0 -51.5 13t-38.5 47l-67 106h-5l-69 -106q-19 -33 -37 -46.5t-51 -13.5h-53q-44 0 -55 30.5z" />
<glyph unicode="&#xd5;" horiz-adv-x="1667" d="M82 737q0 206 95.5 375.5t268 268t388.5 98.5t388.5 -98.5t267.5 -268t95 -375.5q0 -212 -95 -386t-267.5 -275t-388.5 -101t-388.5 101t-268 275t-95.5 386zM354 737q0 -223 136 -371.5t344 -148.5t343.5 148.5t135.5 371.5q0 214 -135.5 357t-343.5 143t-344 -143 t-136 -357zM469 1630q0 85 58 144t149 59q52 0 96.5 -21t69.5 -45.5t55.5 -45.5t58.5 -21q65 0 72 80q1 22 21.5 34.5t52.5 12.5h20q76 0 76 -70q0 -94 -57.5 -152.5t-149.5 -58.5q-53 0 -97.5 21t-69 45.5t-55 45.5t-58.5 21q-34 0 -54.5 -23t-23.5 -59q-6 -45 -70 -45h-20 q-74 0 -74 78z" />
<glyph unicode="&#xd6;" horiz-adv-x="1667" d="M82 737q0 206 95.5 375.5t268 268t388.5 98.5t388.5 -98.5t267.5 -268t95 -375.5q0 -212 -95 -386t-267.5 -275t-388.5 -101t-388.5 101t-268 275t-95.5 386zM354 737q0 -223 136 -371.5t344 -148.5t343.5 148.5t135.5 371.5q0 214 -135.5 357t-343.5 143t-344 -143 t-136 -357zM545 1677v68q0 84 86 84h28q86 0 86 -84v-68q0 -86 -86 -86h-28q-86 0 -86 86zM922 1677v68q0 84 84 84h30q84 0 84 -84v-68q0 -86 -84 -86h-30q-84 0 -84 86z" />
<glyph unicode="&#xd7;" d="M150 205l346 381l-346 381q-56 62 2 120l20 23q64 61 121 -2l340 -375l340 375q57 63 121 2l22 -23q58 -58 2 -120l-348 -381l348 -381q56 -63 -2 -121l-22 -23q-63 -63 -121 2l-340 373l-340 -373q-58 -65 -121 -2l-20 23q-58 58 -2 121z" />
<glyph unicode="&#xd8;" horiz-adv-x="1665" d="M82 735q0 154 58 292t157.5 237t239 157t297.5 58q196 0 372 -95l39 58q51 66 111 26q56 -44 22 -86l-53 -77q122 -103 191 -250.5t69 -319.5q0 -157 -57.5 -298t-157 -242.5t-239 -160.5t-297.5 -59q-216 0 -392 107l-45 -68q-52 -67 -110 -26q-60 41 -19 94l60 84 q-116 104 -181 252t-65 317zM354 735q0 -208 129 -354l574 797q-105 59 -223 59q-201 0 -340.5 -143.5t-139.5 -358.5zM590 287q112 -70 244 -70q201 0 340 148.5t139 369.5q0 105 -37.5 197.5t-104.5 159.5z" />
<glyph unicode="&#xd9;" horiz-adv-x="1472" d="M152 522v846q0 86 84 86h92q86 0 86 -86v-844q0 -146 86.5 -226.5t234.5 -80.5q149 0 236.5 80.5t87.5 226.5v844q0 86 84 86h94q84 0 84 -86v-846q0 -245 -161 -396t-423 -151q-263 0 -424 151t-161 396zM482 1798q12 31 65 31h76q65 0 100 -60l72 -124q22 -35 11.5 -65 t-52.5 -30h-54q-61 0 -104 52l-92 124q-34 41 -22 72z" />
<glyph unicode="&#xda;" horiz-adv-x="1472" d="M152 522v846q0 86 84 86h92q86 0 86 -86v-844q0 -146 86.5 -226.5t234.5 -80.5q149 0 236.5 80.5t87.5 226.5v844q0 86 84 86h94q84 0 84 -86v-846q0 -245 -161 -396t-423 -151q-263 0 -424 151t-161 396zM666 1578.5q-15 28.5 8 68.5l71 122q35 60 101 60h74 q55 0 67.5 -31t-22.5 -72l-93 -124q-43 -52 -104 -52h-43q-44 0 -59 28.5z" />
<glyph unicode="&#xdb;" horiz-adv-x="1472" d="M152 522v846q0 86 84 86h92q86 0 86 -86v-844q0 -146 86.5 -226.5t234.5 -80.5q149 0 236.5 80.5t87.5 226.5v844q0 86 84 86h94q84 0 84 -86v-846q0 -245 -161 -396t-423 -151q-263 0 -424 151t-161 396zM467 1580.5q-11 30.5 18 74.5l82 119q38 55 105 55h127 q66 0 104 -55l82 -119q29 -44 18 -74.5t-55 -30.5h-53q-34 0 -51.5 13t-38.5 47l-68 106h-4l-69 -106q-18 -33 -36.5 -46.5t-52.5 -13.5h-53q-44 0 -55 30.5z" />
<glyph unicode="&#xdc;" horiz-adv-x="1472" d="M152 522v846q0 86 84 86h92q86 0 86 -86v-844q0 -146 86.5 -226.5t234.5 -80.5q149 0 236.5 80.5t87.5 226.5v844q0 86 84 86h94q84 0 84 -86v-846q0 -245 -161 -396t-423 -151q-263 0 -424 151t-161 396zM449 1677v68q0 84 86 84h28q86 0 86 -84v-68q0 -86 -86 -86h-28 q-86 0 -86 86zM825 1677v68q0 84 84 84h31q84 0 84 -84v-68q0 -86 -84 -86h-31q-84 0 -84 86z" />
<glyph unicode="&#xdd;" horiz-adv-x="1187" d="M27.5 1424.5q16.5 29.5 66.5 29.5h115q69 0 98 -63l197 -365q20 -40 42 -89t34 -77l12 -29h4q43 105 88 195l197 365q29 63 98 63h115q51 0 67.5 -29.5t-8.5 -72.5l-428 -744v-522q0 -86 -84 -86h-92q-86 0 -86 86v522l-426 744q-26 43 -9.5 72.5zM524.5 1578.5 q-15.5 28.5 7.5 68.5l72 122q35 60 101 60h73q55 0 67.5 -31t-22.5 -72l-92 -124q-43 -52 -104 -52h-43q-44 0 -59.5 28.5z" />
<glyph unicode="&#xde;" horiz-adv-x="1241" d="M168 86v1282q0 86 84 86h94q41 0 62.5 -22t21.5 -62v-151h297q205 0 334 -131.5t129 -342.5q0 -212 -129.5 -344.5t-335.5 -132.5h-295v-182q0 -86 -84 -86h-94q-84 0 -84 86zM430 496h248q116 0 180 67t64 182t-63.5 180.5t-176.5 65.5h-252v-495z" />
<glyph unicode="&#xdf;" horiz-adv-x="1222" d="M129 86v997q0 124 69.5 216t176 136t229.5 44q178 0 300 -102t122 -255q0 -51 -18.5 -96.5t-45.5 -77.5t-54 -61t-45.5 -61t-18.5 -64t34 -66t82.5 -69t97 -76t82.5 -102.5t34 -133.5q0 -157 -107 -243t-262 -86q-105 0 -207 30q-70 14 -70 95v51q0 90 78 71 q80 -26 162 -26q62 0 102.5 30t40.5 93q0 37 -34 74.5t-82 71.5t-96.5 72t-82.5 92t-34 116q0 45 18.5 86.5t45.5 73.5t54 63t45.5 67t18.5 72q0 57 -45 98t-123 41q-87 0 -147 -48.5t-60 -143.5v-979q0 -86 -86 -86h-88q-86 0 -86 86z" />
<glyph unicode="&#xe0;" horiz-adv-x="1075" d="M49 289q0 63 22 115.5t58 88.5t87 64t104.5 44t116 26.5t115 14t107.5 3.5h43v25q0 96 -53.5 140t-140.5 44q-110 0 -217 -59q-79 -36 -115 34l-20 39q-40 75 32 115q167 86 342 86q203 0 318 -109.5t115 -306.5v-567q0 -86 -86 -86h-70q-84 0 -84 86v41l4 45h-4 q-4 -8 -12 -21.5t-37.5 -47.5t-64 -59.5t-92.5 -47t-122 -21.5q-146 0 -246 87.5t-100 226.5zM287 1423.5q12 30.5 65 30.5h76q66 0 100 -59l72 -125q22 -35 11.5 -64.5t-52.5 -29.5h-53q-63 0 -105 51l-92 125q-34 41 -22 71.5zM307 311q0 -56 42 -96.5t116 -40.5 q103 0 171.5 86.5t68.5 188.5v38h-43q-60 0 -112.5 -6t-112 -23t-95 -54.5t-35.5 -92.5z" />
<glyph unicode="&#xe1;" horiz-adv-x="1075" d="M49 289q0 63 22 115.5t58 88.5t87 64t104.5 44t116 26.5t115 14t107.5 3.5h43v25q0 96 -53.5 140t-140.5 44q-110 0 -217 -59q-79 -36 -115 34l-20 39q-40 75 32 115q167 86 342 86q203 0 318 -109.5t115 -306.5v-567q0 -86 -86 -86h-70q-84 0 -84 86v41l4 45h-4 q-4 -8 -12 -21.5t-37.5 -47.5t-64 -59.5t-92.5 -47t-122 -21.5q-146 0 -246 87.5t-100 226.5zM307 311q0 -56 42 -96.5t116 -40.5q103 0 171.5 86.5t68.5 188.5v38h-43q-60 0 -112.5 -6t-112 -23t-95 -54.5t-35.5 -92.5zM465 1204q-15 28 8 68l72 123q34 59 100 59h74 q55 0 67.5 -30.5t-22.5 -71.5l-92 -125q-42 -51 -105 -51h-43q-44 0 -59 28z" />
<glyph unicode="&#xe2;" horiz-adv-x="1075" d="M49 289q0 63 22 115.5t58 88.5t87 64t104.5 44t116 26.5t115 14t107.5 3.5h43v25q0 96 -53.5 140t-140.5 44q-110 0 -217 -59q-79 -36 -115 34l-20 39q-40 75 32 115q167 86 342 86q203 0 318 -109.5t115 -306.5v-567q0 -86 -86 -86h-70q-84 0 -84 86v41l4 45h-4 q-4 -8 -12 -21.5t-37.5 -47.5t-64 -59.5t-92.5 -47t-122 -21.5q-146 0 -246 87.5t-100 226.5zM269 1206q-11 30 18 74l82 119q38 55 104 55h127q67 0 105 -55l81 -119q29 -44 18.5 -74t-54.5 -30h-54q-35 0 -52.5 12.5t-37.5 46.5l-67 106h-4l-70 -106q-18 -33 -36 -46 t-52 -13h-53q-44 0 -55 30zM307 311q0 -56 42 -96.5t116 -40.5q103 0 171.5 86.5t68.5 188.5v38h-43q-60 0 -112.5 -6t-112 -23t-95 -54.5t-35.5 -92.5z" />
<glyph unicode="&#xe3;" horiz-adv-x="1075" d="M49 289q0 63 22 115.5t58 88.5t87 64t104.5 44t116 26.5t115 14t107.5 3.5h43v25q0 96 -53.5 140t-140.5 44q-110 0 -217 -59q-79 -36 -115 34l-20 39q-40 75 32 115q167 86 342 86q203 0 318 -109.5t115 -306.5v-567q0 -86 -86 -86h-70q-84 0 -84 86v41l4 45h-4 q-4 -8 -12 -21.5t-37.5 -47.5t-64 -59.5t-92.5 -47t-122 -21.5q-146 0 -246 87.5t-100 226.5zM172 1255q0 85 58 144t149 59q52 0 96.5 -21t69.5 -45.5t55.5 -45.5t58.5 -21q65 0 72 80q1 22 21.5 34.5t52.5 12.5h20q76 0 76 -70q0 -94 -57.5 -152.5t-149.5 -58.5 q-53 0 -97.5 21t-69 46t-55 46t-58.5 21q-34 0 -54.5 -23t-23.5 -59q-6 -45 -70 -45h-20q-74 0 -74 77zM307 311q0 -56 42 -96.5t116 -40.5q103 0 171.5 86.5t68.5 188.5v38h-43q-60 0 -112.5 -6t-112 -23t-95 -54.5t-35.5 -92.5z" />
<glyph unicode="&#xe4;" horiz-adv-x="1075" d="M49 289q0 63 22 115.5t58 88.5t87 64t104.5 44t116 26.5t115 14t107.5 3.5h43v25q0 96 -53.5 140t-140.5 44q-110 0 -217 -59q-79 -36 -115 34l-20 39q-40 75 32 115q167 86 342 86q203 0 318 -109.5t115 -306.5v-567q0 -86 -86 -86h-70q-84 0 -84 86v41l4 45h-4 q-4 -8 -12 -21.5t-37.5 -47.5t-64 -59.5t-92.5 -47t-122 -21.5q-146 0 -246 87.5t-100 226.5zM248 1303v67q0 84 86 84h28q42 0 64.5 -21.5t22.5 -62.5v-67q0 -86 -87 -86h-28q-86 0 -86 86zM307 311q0 -56 42 -96.5t116 -40.5q103 0 171.5 86.5t68.5 188.5v38h-43 q-60 0 -112.5 -6t-112 -23t-95 -54.5t-35.5 -92.5zM625 1303v67q0 84 84 84h30q84 0 84 -84v-67q0 -86 -84 -86h-30q-84 0 -84 86z" />
<glyph unicode="&#xe5;" horiz-adv-x="1075" d="M49 289q0 63 22 115.5t58 88.5t87 64t104.5 44t116 26.5t115 14t107.5 3.5h43v25q0 96 -53.5 140t-140.5 44q-110 0 -217 -59q-79 -36 -115 34l-20 39q-40 75 32 115q167 86 342 86q203 0 318 -109.5t115 -306.5v-567q0 -86 -86 -86h-70q-84 0 -84 86v41l4 45h-4 q-4 -8 -12 -21.5t-37.5 -47.5t-64 -59.5t-92.5 -47t-122 -21.5q-146 0 -246 87.5t-100 226.5zM307 311q0 -56 42 -96.5t116 -40.5q103 0 171.5 86.5t68.5 188.5v38h-43q-60 0 -112.5 -6t-112 -23t-95 -54.5t-35.5 -92.5zM342 1311q0 75 58 118.5t137 43.5q78 0 135 -43.5 t57 -118.5q0 -74 -57.5 -117t-134.5 -43q-79 0 -137 43t-58 117zM467 1311q0 -31 19 -50.5t51 -19.5q31 0 50 19.5t19 50.5q0 32 -19 51.5t-50 19.5t-50.5 -19.5t-19.5 -51.5z" />
<glyph unicode="&#xe6;" horiz-adv-x="1734" d="M53 301q0 66 24.5 120t63 89t95 61t109.5 40t119 22t111 10t97 2h33v25q0 184 -201 184q-104 0 -211 -59q-79 -35 -117 34l-18 37q-41 77 30 115q157 88 334 88q243 0 340 -154h4q126 154 346 154q217 0 340 -138t123 -358q0 -33 -26.5 -60.5t-63.5 -27.5h-631 q12 -140 97.5 -214t210.5 -74q119 0 225 67q79 39 117 -31l20 -38q42 -73 -27 -115q-166 -105 -354 -105q-151 0 -261 60.5t-177 169.5h-4q-8 -19 -23 -43t-48.5 -58t-75 -61t-106 -46.5t-138.5 -19.5q-152 0 -254.5 87.5t-102.5 236.5zM315 313q0 -58 41 -96.5t119 -38.5 q67 0 122 42.5t83.5 105.5t28.5 129v30h-72q-46 0 -87.5 -4t-85.5 -16t-76 -30.5t-52.5 -49.5t-20.5 -72zM963 645h450q-3 100 -61 160.5t-142 60.5q-99 0 -163 -58t-84 -163z" />
<glyph unicode="&#xe7;" horiz-adv-x="1091" d="M66 522q0 149 68.5 273t199.5 199t299 75q194 0 342 -104q64 -43 16 -117l-26 -41q-22 -34 -50.5 -38.5t-64.5 15.5q-95 64 -203 64q-142 0 -229.5 -93.5t-87.5 -230.5t89.5 -232t235.5 -95q123 0 234 79q78 44 117 -26l20 -39q40 -71 -22 -115q-143 -109 -340 -119 l-15 -67q67 -8 108.5 -47.5t41.5 -108.5q0 -94 -63.5 -137t-157.5 -43q-117 0 -117 70q0 33 12.5 52t30.5 19q9 0 25.5 -3t25.5 -3q34 0 55 15t21 45q0 49 -92 59q-46 3 -31 63l24 93q-213 30 -339.5 180t-126.5 358z" />
<glyph unicode="&#xe8;" horiz-adv-x="1118" d="M66 522q0 242 147.5 394.5t382.5 152.5q217 0 340 -138.5t123 -359.5q0 -35 -26.5 -61.5t-63.5 -26.5h-637q12 -136 100.5 -211t212.5 -75q119 0 225 67q77 38 115 -28l25 -41q39 -74 -29 -115q-166 -105 -354 -105q-168 0 -297.5 75t-196.5 199t-67 273zM338 641h463 q-3 107 -61.5 169t-149.5 62q-99 0 -166 -62.5t-86 -168.5zM343 1423.5q12 30.5 65 30.5h75q67 0 101 -59l71 -125q22 -35 11.5 -64.5t-52.5 -29.5h-53q-62 0 -104 51l-92 125q-34 41 -22 71.5z" />
<glyph unicode="&#xe9;" horiz-adv-x="1118" d="M66 522q0 242 147.5 394.5t382.5 152.5q217 0 340 -138.5t123 -359.5q0 -35 -26.5 -61.5t-63.5 -26.5h-637q12 -136 100.5 -211t212.5 -75q119 0 225 67q77 38 115 -28l25 -41q39 -74 -29 -115q-166 -105 -354 -105q-168 0 -297.5 75t-196.5 199t-67 273zM338 641h463 q-3 107 -61.5 169t-149.5 62q-99 0 -166 -62.5t-86 -168.5zM520.5 1204q-15.5 28 7.5 68l72 123q34 59 100 59h74q55 0 67.5 -30.5t-22.5 -71.5l-92 -125q-42 -51 -104 -51h-43q-44 0 -59.5 28z" />
<glyph unicode="&#xea;" horiz-adv-x="1118" d="M66 522q0 242 147.5 394.5t382.5 152.5q217 0 340 -138.5t123 -359.5q0 -35 -26.5 -61.5t-63.5 -26.5h-637q12 -136 100.5 -211t212.5 -75q119 0 225 67q77 38 115 -28l25 -41q39 -74 -29 -115q-166 -105 -354 -105q-168 0 -297.5 75t-196.5 199t-67 273zM322 1206 q-11 30 18 74l82 119q38 55 104 55h127q67 0 105 -55l82 -119q29 -44 18 -74t-55 -30h-53q-35 0 -53 13t-38 46l-67 106h-4l-70 -106q-18 -33 -36 -46t-52 -13h-53q-44 0 -55 30zM338 641h463q-3 107 -61.5 169t-149.5 62q-99 0 -166 -62.5t-86 -168.5z" />
<glyph unicode="&#xeb;" horiz-adv-x="1118" d="M66 522q0 242 147.5 394.5t382.5 152.5q217 0 340 -138.5t123 -359.5q0 -35 -26.5 -61.5t-63.5 -26.5h-637q12 -136 100.5 -211t212.5 -75q119 0 225 67q77 38 115 -28l25 -41q39 -74 -29 -115q-166 -105 -354 -105q-168 0 -297.5 75t-196.5 199t-67 273zM303 1303v67 q0 84 86 84h29q86 0 86 -84v-67q0 -86 -86 -86h-29q-86 0 -86 86zM338 641h463q-3 107 -61.5 169t-149.5 62q-99 0 -166 -62.5t-86 -168.5zM680 1303v67q0 84 84 84h31q84 0 84 -84v-67q0 -86 -84 -86h-31q-84 0 -84 86z" />
<glyph unicode="&#xec;" horiz-adv-x="516" d="M7 1423.5q12 30.5 65 30.5h75q67 0 101 -59l71 -125q22 -35 12 -64.5t-52 -29.5h-54q-62 0 -104 51l-92 125q-34 41 -22 71.5zM129 86v872q0 86 84 86h90q84 0 84 -86v-872q0 -86 -84 -86h-90q-84 0 -84 86z" />
<glyph unicode="&#xed;" horiz-adv-x="516" d="M129 86v872q0 86 84 86h90q84 0 84 -86v-872q0 -86 -84 -86h-90q-84 0 -84 86zM191 1204q-15 28 8 68l71 123q34 59 101 59h73q55 0 67.5 -30.5t-22.5 -71.5l-92 -125q-42 -51 -104 -51h-43q-44 0 -59 28z" />
<glyph unicode="&#xee;" horiz-adv-x="516" d="M-8 1206q-11 30 18 74l82 119q38 55 105 55h127q66 0 104 -55l82 -119q29 -44 18 -74t-55 -30h-53q-35 0 -52.5 12.5t-37.5 46.5l-68 106h-4l-70 -106q-18 -33 -36 -46t-52 -13h-53q-44 0 -55 30zM129 86v872q0 86 84 86h90q84 0 84 -86v-872q0 -86 -84 -86h-90 q-84 0 -84 86z" />
<glyph unicode="&#xef;" horiz-adv-x="516" d="M-29 1303v67q0 84 86 84h29q86 0 86 -84v-67q0 -86 -86 -86h-29q-86 0 -86 86zM129 86v872q0 86 84 86h90q84 0 84 -86v-872q0 -86 -84 -86h-90q-84 0 -84 86zM348 1303v67q0 84 84 84h31q84 0 84 -84v-67q0 -86 -84 -86h-31q-84 0 -84 86z" />
<glyph unicode="&#xf0;" horiz-adv-x="1185" d="M68 485q0 123 55 228t166.5 172t259.5 67q64 0 118.5 -18t77.5 -36l23 -17h4q-57 134 -203 229l-282 -123q-43 -18 -63 -13t-34 38l-10 24q-24 57 49 86l177 78q-63 33 -152 57q-82 28 -55 109l14 45q28 78 106 57q213 -58 365 -151l207 90q44 15 62.5 9.5t29.5 -32.5 l14 -30q24 -50 -47 -80l-131 -60q281 -246 281 -645q0 -87 -18 -169t-59 -160t-101 -136.5t-151.5 -93.5t-203.5 -35q-116 0 -212 43t-157.5 114.5t-95.5 163t-34 189.5zM330 479q0 -117 63 -200.5t180 -83.5q68 0 121 29t83.5 77t45.5 104.5t15 116.5q0 100 -65.5 164 t-176.5 64q-127 0 -196.5 -79.5t-69.5 -191.5z" />
<glyph unicode="&#xf1;" horiz-adv-x="1226" d="M129 86v872q0 86 84 86h80q84 0 84 -86v-63l-4 -47h4q15 29 35.5 57t54 58.5t72.5 53t93.5 37.5t115.5 15q364 0 364 -397v-586q0 -86 -86 -86h-88q-86 0 -86 86v532q0 104 -36 158.5t-128 54.5q-135 0 -218 -98.5t-83 -243.5v-403q0 -86 -84 -86h-90q-84 0 -84 86z M268 1255q0 85 58 144t149 59q52 0 96.5 -21t69.5 -45.5t56 -45.5t59 -21q64 0 71 80q1 22 21.5 34.5t52.5 12.5h21q75 0 75 -70q0 -94 -57 -152.5t-149 -58.5q-53 0 -97.5 21t-69.5 46t-55.5 46t-58.5 21q-34 0 -54.5 -23t-23.5 -59q-6 -45 -70 -45h-20q-74 0 -74 77z" />
<glyph unicode="&#xf2;" horiz-adv-x="1273" d="M63 522q0 156 77 282t208.5 195.5t288.5 69.5t288.5 -69.5t209 -195.5t77.5 -282q0 -157 -77.5 -283t-208.5 -195t-289 -69t-288.5 69t-208 195t-77.5 283zM328 522q0 -143 89.5 -234t219.5 -91t220.5 91t90.5 234q0 142 -90.5 234t-220.5 92t-219.5 -92t-89.5 -234z M384 1423.5q12 30.5 65 30.5h75q67 0 101 -59l71 -125q22 -35 11.5 -64.5t-52.5 -29.5h-53q-62 0 -104 51l-92 125q-34 41 -22 71.5z" />
<glyph unicode="&#xf3;" horiz-adv-x="1273" d="M63 522q0 156 77 282t208.5 195.5t288.5 69.5t288.5 -69.5t209 -195.5t77.5 -282q0 -157 -77.5 -283t-208.5 -195t-289 -69t-288.5 69t-208 195t-77.5 283zM328 522q0 -143 89.5 -234t219.5 -91t220.5 91t90.5 234q0 142 -90.5 234t-220.5 92t-219.5 -92t-89.5 -234z M567.5 1204q-15.5 28 7.5 68l72 123q34 59 101 59h73q55 0 67.5 -30.5t-22.5 -71.5l-92 -125q-42 -51 -104 -51h-43q-44 0 -59.5 28z" />
<glyph unicode="&#xf4;" horiz-adv-x="1273" d="M63 522q0 156 77 282t208.5 195.5t288.5 69.5t288.5 -69.5t209 -195.5t77.5 -282q0 -157 -77.5 -283t-208.5 -195t-289 -69t-288.5 69t-208 195t-77.5 283zM328 522q0 -143 89.5 -234t219.5 -91t220.5 91t90.5 234q0 142 -90.5 234t-220.5 92t-219.5 -92t-89.5 -234z M369 1206q-11 30 18 74l82 119q38 55 104 55h127q67 0 105 -55l82 -119q29 -44 18 -74t-55 -30h-53q-35 0 -52.5 12.5t-37.5 46.5l-68 106h-4l-70 -106q-18 -33 -36 -46t-52 -13h-53q-44 0 -55 30z" />
<glyph unicode="&#xf5;" horiz-adv-x="1273" d="M63 522q0 156 77 282t208.5 195.5t288.5 69.5t288.5 -69.5t209 -195.5t77.5 -282q0 -157 -77.5 -283t-208.5 -195t-289 -69t-288.5 69t-208 195t-77.5 283zM272 1255q0 85 58 144t149 59q52 0 96.5 -21t69.5 -45.5t56 -45.5t59 -21q64 0 71 80q1 22 21.5 34.5t52.5 12.5 h21q75 0 75 -70q0 -94 -57 -152.5t-149 -58.5q-53 0 -97.5 21t-69.5 46t-55.5 46t-58.5 21q-34 0 -54.5 -23t-23.5 -59q-6 -45 -69 -45h-21q-74 0 -74 77zM328 522q0 -143 89.5 -234t219.5 -91t220.5 91t90.5 234q0 142 -90.5 234t-220.5 92t-219.5 -92t-89.5 -234z" />
<glyph unicode="&#xf6;" horiz-adv-x="1273" d="M63 522q0 156 77 282t208.5 195.5t288.5 69.5t288.5 -69.5t209 -195.5t77.5 -282q0 -157 -77.5 -283t-208.5 -195t-289 -69t-288.5 69t-208 195t-77.5 283zM328 522q0 -143 89.5 -234t219.5 -91t220.5 91t90.5 234q0 142 -90.5 234t-220.5 92t-219.5 -92t-89.5 -234z M348 1303v67q0 84 86 84h29q86 0 86 -84v-67q0 -86 -86 -86h-29q-86 0 -86 86zM725 1303v67q0 84 84 84h31q84 0 84 -84v-67q0 -86 -84 -86h-31q-84 0 -84 86z" />
<glyph unicode="&#xf7;" d="M100 569v31q0 86 86 86h897q84 0 84 -86v-31q0 -86 -84 -86h-897q-86 0 -86 86zM516 139v51q0 86 86 86h64q86 0 86 -86v-51q0 -84 -86 -84h-64q-86 0 -86 84zM516 979v51q0 86 86 86h64q86 0 86 -86v-51q0 -84 -86 -84h-64q-86 0 -86 84z" />
<glyph unicode="&#xf8;" horiz-adv-x="1275" d="M66 522q0 156 77 282t208 195.5t288 69.5q146 0 272 -63l33 47q49 67 107 30q57 -42 22 -86l-47 -65q88 -75 138 -181t50 -229q0 -157 -77.5 -283t-208.5 -195t-289 -69q-143 0 -258 56l-35 -49q-50 -68 -106 -29q-58 42 -23 86l45 63q-93 73 -144.5 181.5t-51.5 238.5z M330 522q0 -133 78 -217l366 510q-68 33 -135 33q-130 0 -219.5 -92t-89.5 -234zM518 221q56 -24 121 -24q130 0 220.5 91t90.5 234q0 119 -71 203z" />
<glyph unicode="&#xf9;" horiz-adv-x="1216" d="M115 373v585q0 41 22.5 63.5t63.5 22.5h88q86 0 86 -86v-532q0 -104 35.5 -158.5t126.5 -54.5q135 0 213.5 102.5t78.5 249.5v393q0 86 86 86h89q41 0 63.5 -22.5t22.5 -63.5v-872q0 -86 -86 -86h-80q-84 0 -84 86v61l4 48h-4q-41 -88 -139.5 -154t-223.5 -66 q-362 0 -362 398zM353 1423.5q12 30.5 65 30.5h76q66 0 100 -59l72 -125q22 -35 11.5 -64.5t-52.5 -29.5h-54q-62 0 -104 51l-92 125q-34 41 -22 71.5z" />
<glyph unicode="&#xfa;" horiz-adv-x="1216" d="M115 373v585q0 41 22.5 63.5t63.5 22.5h88q86 0 86 -86v-532q0 -104 35.5 -158.5t126.5 -54.5q135 0 213.5 102.5t78.5 249.5v393q0 86 86 86h89q41 0 63.5 -22.5t22.5 -63.5v-872q0 -86 -86 -86h-80q-84 0 -84 86v61l4 48h-4q-41 -88 -139.5 -154t-223.5 -66 q-362 0 -362 398zM533 1204q-15 28 8 68l71 123q34 59 101 59h73q55 0 67.5 -30.5t-22.5 -71.5l-92 -125q-42 -51 -104 -51h-43q-44 0 -59 28z" />
<glyph unicode="&#xfb;" horiz-adv-x="1216" d="M115 373v585q0 41 22.5 63.5t63.5 22.5h88q86 0 86 -86v-532q0 -104 35.5 -158.5t126.5 -54.5q135 0 213.5 102.5t78.5 249.5v393q0 86 86 86h89q41 0 63.5 -22.5t22.5 -63.5v-872q0 -86 -86 -86h-80q-84 0 -84 86v61l4 48h-4q-41 -88 -139.5 -154t-223.5 -66 q-362 0 -362 398zM334 1206q-11 30 18 74l82 119q38 55 105 55h127q66 0 104 -55l82 -119q29 -44 18 -74t-55 -30h-53q-35 0 -52.5 12.5t-37.5 46.5l-68 106h-4l-70 -106q-18 -33 -36 -46t-52 -13h-53q-44 0 -55 30z" />
<glyph unicode="&#xfc;" horiz-adv-x="1216" d="M115 373v585q0 41 22.5 63.5t63.5 22.5h88q86 0 86 -86v-532q0 -104 35.5 -158.5t126.5 -54.5q135 0 213.5 102.5t78.5 249.5v393q0 86 86 86h89q41 0 63.5 -22.5t22.5 -63.5v-872q0 -86 -86 -86h-80q-84 0 -84 86v61l4 48h-4q-41 -88 -139.5 -154t-223.5 -66 q-362 0 -362 398zM313 1303v67q0 84 86 84h29q86 0 86 -84v-67q0 -86 -86 -86h-29q-86 0 -86 86zM690 1303v67q0 84 84 84h31q84 0 84 -84v-67q0 -86 -84 -86h-31q-84 0 -84 86z" />
<glyph unicode="&#xfd;" horiz-adv-x="1052" d="M21 1016q18 28 67 28h111q73 0 96 -69l197 -533l38 -141h5q18 82 34 137l185 535q20 71 96 71h102q47 0 66 -27t4 -71l-430 -1102q-52 -136 -153.5 -205t-223.5 -69q-63 0 -145 31q-36 13 -46.5 44t7.5 66l18 45q30 61 92 47q41 -18 74 -18q54 0 97.5 39.5t68.5 99.5 l39 92l-397 928q-20 44 -2 72zM461 1202q-15 28 8 68l72 123q34 59 100 59h74q55 0 67.5 -30.5t-22.5 -71.5l-92 -125q-42 -51 -105 -51h-43q-44 0 -59 28z" />
<glyph unicode="&#xfe;" horiz-adv-x="1234" d="M131 -324v1692q0 41 22.5 63.5t63.5 22.5h88q86 0 86 -86v-360l-4 -86h4q23 25 31 34t41 36t61 39.5t75 25t99 12.5q211 0 340 -154.5t129 -392.5t-132 -392.5t-341 -154.5q-62 0 -116.5 14.5t-87 35.5t-56.5 42t-34 35l-9 15h-4q4 -37 4 -90v-351q0 -86 -86 -86h-88 q-86 0 -86 86zM383 520q0 -152 72 -238.5t192 -86.5q114 0 186 92t72 235q0 142 -70.5 234t-183.5 92q-118 0 -193 -79.5t-75 -248.5z" />
<glyph unicode="&#xff;" horiz-adv-x="1052" d="M21 1016q18 28 67 28h111q73 0 96 -69l197 -533l38 -141h5q18 82 34 137l185 535q20 71 96 71h102q47 0 66 -27t4 -71l-430 -1102q-52 -136 -153.5 -205t-223.5 -69q-63 0 -145 31q-36 13 -46.5 44t7.5 66l18 45q30 61 92 47q41 -18 74 -18q54 0 97.5 39.5t68.5 99.5 l39 92l-397 928q-20 44 -2 72zM244 1300v68q0 84 86 84h28q86 0 86 -84v-68q0 -86 -86 -86h-28q-86 0 -86 86zM621 1300v68q0 84 84 84h30q84 0 84 -84v-68q0 -86 -84 -86h-30q-84 0 -84 86z" />
<glyph unicode="&#x152;" horiz-adv-x="1961" d="M78 729q0 154 59.5 291.5t161 236t243 156t300.5 57.5q62 0 142 -8t116 -8h672q86 0 86 -86v-57q0 -84 -86 -84h-523v-381h406q86 0 86 -84v-57q0 -87 -86 -87h-406v-391h557q84 0 84 -84v-57q0 -86 -84 -86h-706q-34 0 -115 -9t-143 -9q-159 0 -300.5 58.5t-243 158 t-161 238t-59.5 292.5zM350 729q0 -144 63 -263t176 -188t253 -69q37 0 73.5 4t54.5 8l17 4v1004q-61 16 -145 16q-140 0 -253 -69t-176 -187t-63 -260z" />
<glyph unicode="&#x153;" horiz-adv-x="2000" d="M63 520q0 160 76.5 286.5t205.5 194.5t284 68q279 0 432 -215h4q135 215 412 215q217 0 339.5 -138.5t122.5 -359.5q0 -35 -25.5 -61.5t-64.5 -26.5h-635q14 -136 102.5 -211t209.5 -75q117 0 227 67q76 39 115 -28l22 -41q40 -76 -28 -115q-161 -105 -355 -105 q-291 0 -436 222h-4q-156 -222 -438 -222q-116 0 -219.5 39t-180 109t-121.5 173t-45 224zM326 520q0 -145 90 -234t221 -89q130 0 219.5 89t89.5 236q0 145 -90 235.5t-219 90.5q-131 0 -221 -91t-90 -237zM1221 641h456q-3 102 -59.5 164.5t-142.5 62.5q-100 0 -167.5 -62 t-86.5 -165z" />
<glyph unicode="&#x178;" horiz-adv-x="1187" d="M27.5 1424.5q16.5 29.5 66.5 29.5h115q69 0 98 -63l197 -365q20 -40 42 -89t34 -77l12 -29h4q43 105 88 195l197 365q29 63 98 63h115q51 0 67.5 -29.5t-8.5 -72.5l-428 -744v-522q0 -86 -84 -86h-92q-86 0 -86 86v522l-426 744q-26 43 -9.5 72.5zM303 1677v68 q0 84 86 84h29q86 0 86 -84v-68q0 -86 -86 -86h-29q-86 0 -86 86zM680 1677v68q0 84 84 84h31q84 0 84 -84v-68q0 -86 -84 -86h-31q-84 0 -84 86z" />
<glyph unicode="&#x2c6;" horiz-adv-x="1011" d="M238 1580.5q-11 30.5 18 74.5l82 119q38 55 104 55h127q67 0 105 -55l82 -119q29 -44 18 -74.5t-55 -30.5h-53q-35 0 -52.5 13t-38.5 47l-67 106h-4l-70 -106q-19 -33 -37 -46.5t-51 -13.5h-53q-44 0 -55 30.5z" />
<glyph unicode="&#x2dc;" horiz-adv-x="1009" d="M141 1630q0 85 58 144t149 59q52 0 96.5 -21t69.5 -45.5t56 -45.5t59 -21q64 0 71 80q1 22 21.5 34.5t52.5 12.5h21q75 0 75 -70q0 -94 -57 -152.5t-149 -58.5q-53 0 -97.5 21t-69.5 45.5t-55.5 45.5t-58.5 21q-34 0 -54.5 -23t-23.5 -59q-6 -45 -69 -45h-21 q-74 0 -74 78z" />
<glyph unicode="&#x2000;" horiz-adv-x="923" />
<glyph unicode="&#x2001;" horiz-adv-x="1847" />
<glyph unicode="&#x2002;" horiz-adv-x="923" />
<glyph unicode="&#x2003;" horiz-adv-x="1847" />
<glyph unicode="&#x2004;" horiz-adv-x="615" />
<glyph unicode="&#x2005;" horiz-adv-x="461" />
<glyph unicode="&#x2006;" horiz-adv-x="307" />
<glyph unicode="&#x2007;" horiz-adv-x="307" />
<glyph unicode="&#x2008;" horiz-adv-x="230" />
<glyph unicode="&#x2009;" horiz-adv-x="369" />
<glyph unicode="&#x200a;" horiz-adv-x="102" />
<glyph unicode="&#x2010;" horiz-adv-x="854" d="M119 557v57q0 84 86 84h444q86 0 86 -84v-57q0 -86 -86 -86h-444q-86 0 -86 86z" />
<glyph unicode="&#x2011;" horiz-adv-x="854" d="M119 557v57q0 84 86 84h444q86 0 86 -84v-57q0 -86 -86 -86h-444q-86 0 -86 86z" />
<glyph unicode="&#x2012;" horiz-adv-x="854" d="M119 557v57q0 84 86 84h444q86 0 86 -84v-57q0 -86 -86 -86h-444q-86 0 -86 86z" />
<glyph unicode="&#x2013;" horiz-adv-x="1374" d="M121 569v31q0 86 84 86h964q84 0 84 -86v-31q0 -86 -84 -86h-964q-84 0 -84 86z" />
<glyph unicode="&#x2014;" horiz-adv-x="1783" d="M121 569v31q0 86 84 86h1374q84 0 84 -86v-31q0 -86 -84 -86h-1374q-84 0 -84 86z" />
<glyph unicode="&#x2018;" horiz-adv-x="444" d="M82 1100l102 311q27 68 99 68h20q45 0 62 -24.5t8 -68.5l-70 -307q-15 -75 -92 -75h-59q-47 0 -66 26t-4 70z" />
<glyph unicode="&#x2019;" horiz-adv-x="440" d="M86 1096l70 307q15 76 92 76h57q47 0 66.5 -26.5t5.5 -70.5l-105 -311q-24 -67 -96 -67h-20q-89 0 -70 92z" />
<glyph unicode="&#x201a;" horiz-adv-x="473" d="M68 -119l69 307q15 76 92 76h60q47 0 65.5 -26.5t3.5 -71.5l-102 -309q-26 -68 -98 -68h-21q-88 0 -69 92z" />
<glyph unicode="&#x201c;" horiz-adv-x="786" d="M82 1100l102 311q27 68 99 68h22q86 0 70 -93l-70 -307q-18 -75 -92 -75h-61q-47 0 -66 26t-4 70zM424 1100l102 311q27 68 99 68h22q43 0 60 -24.5t8 -68.5l-68 -307q-18 -75 -94 -75h-59q-47 0 -66 26t-4 70z" />
<glyph unicode="&#x201d;" horiz-adv-x="782" d="M86 1096l70 307q15 76 92 76h59q47 0 66 -26.5t4 -70.5l-103 -311q-24 -67 -98 -67h-20q-89 0 -70 92zM428 1096l70 307q15 76 92 76h59q47 0 66 -26.5t4 -70.5l-103 -311q-24 -67 -98 -67h-20q-89 0 -70 92z" />
<glyph unicode="&#x201e;" horiz-adv-x="815" d="M68 -119l69 307q15 76 92 76h60q47 0 65.5 -26.5t3.5 -71.5l-102 -309q-23 -68 -96 -68h-23q-88 0 -69 92zM410 -119l69 307q15 76 92 76h60q47 0 65.5 -26.5t3.5 -71.5l-102 -309q-23 -68 -96 -68h-23q-88 0 -69 92z" />
<glyph unicode="&#x2022;" horiz-adv-x="872" d="M94 596q0 141 100.5 241.5t241.5 100.5t241.5 -100.5t100.5 -241.5t-100.5 -241.5t-241.5 -100.5t-241.5 100.5t-100.5 241.5z" />
<glyph unicode="&#x2026;" horiz-adv-x="1644" d="M113 86v92q0 84 86 84h82q86 0 86 -84v-92q0 -86 -86 -86h-82q-86 0 -86 86zM696 86v92q0 84 84 84h84q86 0 86 -84v-92q0 -86 -86 -86h-84q-84 0 -84 86zM1280 86v92q0 84 84 84h84q84 0 84 -84v-92q0 -86 -84 -86h-84q-84 0 -84 86z" />
<glyph unicode="&#x202f;" horiz-adv-x="369" />
<glyph unicode="&#x2039;" horiz-adv-x="673" d="M100 518q-50 60 0 119l248 313q43 49 105 49h51q54 0 68.5 -30.5t-19.5 -73.5l-252 -317l252 -316q34 -43 22 -73.5t-63 -30.5h-59q-62 0 -105 49z" />
<glyph unicode="&#x203a;" horiz-adv-x="673" d="M99 968.5q12 30.5 63 30.5h59q62 0 105 -49l247 -313q50 -59 0 -119l-247 -311q-43 -49 -105 -49h-51q-54 0 -68.5 30.5t19.5 73.5l252 316l-252 317q-34 43 -22 73.5z" />
<glyph unicode="&#x205f;" horiz-adv-x="461" />
<glyph unicode="&#x20ac;" horiz-adv-x="1234" d="M76 590q0 40 17.5 59t60.5 19h36q-9 52 -2 127h-32q-80 0 -80 79q0 40 18.5 59t61.5 19h61q67 233 259 380t442 147q35 0 131 -11q42 -6 59 -33t6 -69l-20 -76q-20 -74 -86 -65q-50 8 -97 8q-146 0 -254.5 -75.5t-156.5 -205.5h426q50 0 69 -19.5t11 -60.5t-29.5 -59 t-65.5 -18h-448q-10 -62 0 -127h407q96 0 80 -80q-9 -42 -29.5 -59t-64.5 -17h-346q50 -132 160.5 -209.5t251.5 -77.5q48 0 106 8q87 13 98 -63l17 -78q8 -39 -9 -66t-57 -34q-83 -17 -159 -17q-260 0 -448.5 147.5t-252.5 389.5h-63q-43 0 -60.5 19t-17.5 59z" />
<glyph unicode="&#x2122;" horiz-adv-x="2000" d="M80 1362v12q0 80 84 80h631q86 0 86 -80v-12q0 -80 -86 -80h-217v-651q0 -84 -84 -84h-25q-86 0 -86 84v651h-219q-84 0 -84 80zM942 635l59 737q6 82 89 82h28q73 0 99 -65l159 -363l27 -86h4q15 51 29 86l159 363q26 65 99 65h28q82 0 88 -82l58 -737q3 -88 -82 -88 h-27q-80 0 -86 82l-28 385l2 63h-5l-133 -299q-26 -65 -98 -65h-12q-70 0 -96 65l-134 299h-4l2 -63l-30 -385q-6 -82 -88 -82h-25q-88 0 -82 88z" />
<glyph unicode="&#xe000;" horiz-adv-x="1044" d="M0 0v1044h1044v-1044h-1044z" />
</font>
</defs>
</svg>
