<?xml version="1.0" standalone="no"?>
<!DOCTYPE svg PUBLIC "-//W3C//DTD SVG 1.1//EN" "http://www.w3.org/Graphics/SVG/1.1/DTD/svg11.dtd" >
<svg xmlns="http://www.w3.org/2000/svg">
<metadata></metadata>
<defs>
<font id="museo_sans_rounded500" horiz-adv-x="1255" >
<font-face units-per-em="2048" ascent="1536" descent="-512" />
<missing-glyph horiz-adv-x="512" />
<glyph unicode="&#xfb01;" horiz-adv-x="1144" d="M55 944v25q0 67 68 67h65v39q0 93 29.5 165t71.5 111.5t97 64.5t97 32.5t80 7.5h25q67 0 67 -67v-39q0 -62 -71 -68q-29 -2 -50.5 -5.5t-51 -16.5t-48.5 -34.5t-33 -62.5t-14 -96v-31h547q67 0 67 -67v-901q0 -68 -67 -68h-64q-67 0 -67 68v809h-416v-809q0 -68 -68 -68 h-63q-68 0 -68 68v809h-65q-68 0 -68 67zM799 1311v67q0 68 67 68h70q68 0 68 -68v-67q0 -68 -68 -68h-70q-32 0 -49.5 18t-17.5 50z" />
<glyph unicode="&#xfb02;" horiz-adv-x="1193" d="M55 932v26q0 32 18 50t50 18h65v49q0 93 29.5 165t71.5 111.5t97 64.5t97 32.5t80 7.5h25q67 0 67 -67v-39q0 -62 -71 -68q-29 -2 -50.5 -5.5t-51 -16.5t-48.5 -34.5t-33 -62.5t-14 -96v-41h178q32 0 50 -18t18 -50v-26q0 -32 -18 -50t-50 -18h-178v-796q0 -68 -68 -68 h-63q-68 0 -68 68v796h-65q-32 0 -50 18t-18 50zM801 283v1095q0 68 67 68h64q67 0 67 -68v-1071q0 -78 26.5 -105.5t68.5 -31.5q53 -7 53 -59v-50q0 -69 -70 -69q-39 0 -72 5t-72.5 23t-67 48t-46 85t-18.5 130z" />
<glyph unicode="&#xfb03;" horiz-adv-x="1802" d="M55 944v25q0 67 68 67h61l4 39q0 93 29.5 165t71.5 111.5t97 64.5t97 32.5t80 7.5h25q67 0 67 -67v-39q0 -62 -71 -68q-29 -2 -50.5 -5.5t-51 -16.5t-48.5 -34.5t-33 -62.5t-14 -96v-31h461v39q0 93 29.5 165t71.5 111.5t96.5 64.5t96.5 32.5t79 7.5h26q32 0 50 -17.5 t18 -49.5v-39q0 -62 -74 -68q-23 -1 -41 -4t-42.5 -10.5t-42.5 -22.5t-34.5 -37t-25 -58.5t-8.5 -82.5v-31h544q68 0 68 -67v-901q0 -68 -68 -68h-63q-68 0 -68 68v809h-413v-809q0 -68 -68 -68h-64q-67 0 -67 68v809h-461v-809q0 -68 -68 -68h-63q-68 0 -68 68l-4 809h-61 q-68 0 -68 67zM1458 1311v67q0 68 68 68h69q68 0 68 -68v-67q0 -32 -18 -50t-50 -18h-69q-68 0 -68 68z" />
<glyph unicode="&#xfb04;" horiz-adv-x="1853" d="M57 944v25q0 67 68 67h61l4 39q0 93 29.5 165t71.5 111.5t96.5 64.5t96.5 32.5t79 7.5h27q67 0 67 -67v-39q0 -33 -17.5 -49t-55.5 -19q-29 -2 -50.5 -5.5t-50.5 -16.5t-48 -34.5t-32.5 -62.5t-13.5 -96v-31h461v39q0 68 15.5 124.5t40 95t58 68t68 47t71.5 28.5 t65.5 14.5t54.5 3.5h24q68 0 68 -67v-39q0 -62 -72 -68q-23 -1 -41 -4t-43 -10.5t-43 -22.5t-34.5 -37t-25.5 -58.5t-9 -82.5v-31h178q67 0 67 -67v-25q0 -67 -61 -67h-184v-809q0 -68 -66 -68h-66q-65 0 -65 68v809h-461v-809q0 -68 -67 -68h-64q-68 0 -68 68l-4 809h-61 q-68 0 -68 67zM1462 283v1095q0 68 68 68h63q68 0 68 -68v-1071q0 -78 25.5 -105.5t66.5 -31.5q53 -6 53 -59v-50q0 -69 -67 -69q-40 0 -73 5t-72.5 23t-67 48t-46 85t-18.5 130z" />
<glyph horiz-adv-x="2048" />
<glyph horiz-adv-x="2048" />
<glyph unicode="&#xd;" horiz-adv-x="2048" />
<glyph unicode=" "  horiz-adv-x="512" />
<glyph unicode="&#x09;" horiz-adv-x="512" />
<glyph unicode="&#xa0;" horiz-adv-x="512" />
<glyph unicode="!" horiz-adv-x="530" d="M164 68v65q0 68 67 68h70q68 0 68 -68v-65q0 -68 -68 -68h-70q-67 0 -67 68zM164 1378q0 68 65 68h70q68 0 68 -68l-11 -913q-3 -68 -69 -68h-45q-32 0 -50 18t-18 50z" />
<glyph unicode="&#x22;" horiz-adv-x="673" d="M115 1104v299q0 67 67 67h21q67 0 67 -67v-299q0 -68 -67 -68h-21q-32 0 -49.5 18t-17.5 50zM403 1104v299q0 67 68 67h21q67 0 67 -67v-299q0 -32 -17.5 -50t-49.5 -18h-21q-68 0 -68 68z" />
<glyph unicode="#" horiz-adv-x="1437" d="M82 463l4 18q9 62 74 62h205l59 344h-191q-72 0 -63 71l4 19q9 59 72 59h205l59 350q12 60 74 60h30q35 0 51.5 -19t10.5 -53l-60 -338h318l59 350q12 60 76 60h29q35 0 51 -19t10 -53l-59 -338h192q35 0 52 -18.5t12 -52.5l-4 -19q-9 -59 -72 -59h-205l-61 -344h190 q35 0 52 -20t12 -54l-4 -16q-9 -62 -74 -62h-203l-55 -330q-12 -61 -76 -61h-29q-35 0 -51 19t-10 53l55 319h-317l-58 -330q-9 -61 -73 -61h-29q-35 0 -51 19t-10 53l55 319h-193q-35 0 -51.5 19t-11.5 53zM530 543h318l61 344h-319z" />
<glyph unicode="$" horiz-adv-x="1097" d="M102 1067q0 150 105 261t274 136v125q0 68 66 68h16q64 0 64 -60v-131q167 -9 303 -104q48 -31 18 -92l-26 -51q-34 -58 -95 -19q-127 82 -260 82q-114 0 -188 -61.5t-74 -149.5q0 -46 24.5 -84t65.5 -66t94 -53.5t112 -50t117.5 -52t111.5 -63.5t94 -79t65.5 -104.5 t24.5 -135.5q0 -157 -104 -269.5t-283 -133.5v-121q0 -68 -64 -68h-16q-66 0 -66 59v130q-195 18 -354 143q-53 41 -10 94l33 47q37 50 96 12q148 -112 313 -112q106 0 179 57t73 156q0 48 -24.5 88t-65.5 69.5t-94 56.5t-112 53t-117.5 53.5t-111.5 63t-94 77t-65.5 100.5 t-24.5 129z" />
<glyph unicode="%" horiz-adv-x="1546" d="M90 1167q0 125 91 214t220 89q128 0 220 -89.5t92 -213.5q0 -126 -92 -214.5t-220 -88.5q-129 0 -220 88.5t-91 214.5zM172 24q-12 24 14 58l1012 1325q29 39 82 39h37q43 0 55 -24t-14 -58l-1012 -1323q-33 -41 -82 -41h-37q-43 0 -55 24zM250 1167q0 -65 43 -108 t108 -43q63 0 107.5 43.5t44.5 107.5q0 63 -44.5 108.5t-107.5 45.5q-64 0 -107.5 -45t-43.5 -109zM834 279q0 125 90 214t219 89t220 -89t91 -214q0 -126 -91 -215t-220 -89t-219 89t-90 215zM993 279q0 -64 43.5 -108t106.5 -44q64 0 107.5 43.5t43.5 108.5 q0 64 -43.5 108.5t-107.5 44.5q-63 0 -106.5 -45t-43.5 -108z" />
<glyph unicode="&#x26;" horiz-adv-x="1318" d="M92 406q0 124 69 227.5t187 142.5v4q-8 3 -21 9t-46 31t-58 57t-46 91t-21 130q0 176 123 274t321 98h94q68 0 68 -67v-37q0 -32 -18 -50t-50 -18h-84q-113 0 -181.5 -61.5t-68.5 -159.5q0 -38 11.5 -74t38.5 -72.5t83 -58.5t134 -22h268v129q0 68 68 68h63q68 0 68 -58 v-139h125q67 0 67 -68v-41q0 -67 -67 -67h-125v-193q0 -240 -133.5 -373t-366.5 -133q-223 0 -362.5 122.5t-139.5 308.5zM299 416q0 -107 81.5 -180.5t213.5 -73.5q143 0 222 81t79 246v185h-277q-153 0 -236 -68t-83 -190z" />
<glyph unicode="'" horiz-adv-x="385" d="M113 1151v252q0 67 67 67h25q65 0 65 -67v-252q0 -66 -65 -66h-25q-67 0 -67 66z" />
<glyph unicode="(" horiz-adv-x="563" d="M100 696q0 403 211 764q23 45 80 45h31q40 0 53 -21.5t-6 -56.5q-188 -356 -188 -733q0 -428 192 -809q17 -35 4 -57.5t-51 -22.5h-35q-53 0 -76 41q-102 184 -158.5 402.5t-56.5 447.5z" />
<glyph unicode=")" horiz-adv-x="563" d="M85 -171.5q-13 23.5 5 60.5q189 378 189 805q0 379 -187 733q-19 35 -7 56.5t50 21.5h35q57 0 80 -45q209 -358 209 -764q0 -228 -54.5 -445.5t-154.5 -400.5q-25 -45 -82 -45h-31q-39 0 -52 23.5z" />
<glyph unicode="*" horiz-adv-x="968" d="M98 1151l13 39q11 32 33 43.5t51 -0.5l208 -78l-8 221q-6 70 64 70h47q69 0 63 -68l-10 -223l209 76q31 12 54 2t32 -41l14 -39q19 -67 -45 -82l-215 -61v-4l135 -172q47 -53 -10 -95l-33 -24q-56 -41 -92 16l-123 184h-4l-121 -180q-39 -60 -94 -20l-35 24 q-26 19 -29 43t19 49l135 175v4l-211 59q-32 8 -44.5 29.5t-2.5 52.5z" />
<glyph unicode="+" d="M86 571v25q0 68 68 68h391v436q0 67 67 67h33q32 0 50 -17.5t18 -49.5v-436h389q32 0 49.5 -18t17.5 -50v-25q0 -67 -67 -67h-389v-436q0 -68 -68 -68h-33q-67 0 -67 68v436h-391q-68 0 -68 67z" />
<glyph unicode="," horiz-adv-x="485" d="M51 -178l107 336q15 57 75 57h64q38 0 53 -22t0 -56l-139 -340q-19 -51 -80 -51h-22q-37 0 -52 20.5t-6 55.5z" />
<glyph unicode="-" horiz-adv-x="860" d="M131 563v41q0 32 18 50t50 18h463q67 0 67 -68v-41q0 -67 -67 -67h-463q-68 0 -68 67z" />
<glyph unicode="." horiz-adv-x="466" d="M127 68v79q0 68 68 68h77q68 0 68 -68v-79q0 -68 -68 -68h-77q-68 0 -68 68z" />
<glyph unicode="/" horiz-adv-x="808" d="M82 -10l477 1478q17 56 78 56h37q36 0 51.5 -21.5t3.5 -54.5l-477 -1479q-21 -55 -78 -55h-37q-37 0 -52 21t-3 55z" />
<glyph unicode="0" horiz-adv-x="1273" d="M125 725q0 129 16 237.5t53.5 204t95.5 161.5t146 104t201 38t201.5 -38t146.5 -104t95 -161.5t53 -204t16 -237.5q0 -130 -16 -239t-53 -205t-95 -162.5t-146.5 -105t-201.5 -38.5t-201 38.5t-146 105t-95.5 162.5t-53.5 205t-16 239zM334 725q0 -125 14.5 -222 t48 -176.5t94 -122t146.5 -42.5t147 42.5t94 122t47.5 176.5t14.5 222t-14.5 221t-47.5 175t-94 121t-147 42q-69 0 -122 -28.5t-87 -77.5t-55.5 -121.5t-30 -153t-8.5 -178.5z" />
<glyph unicode="1" horiz-adv-x="960" d="M92 68v41q0 67 68 67h252v934l2 88h-4q-19 -33 -64 -78l-92 -90q-51 -47 -94 2l-29 29q-48 48 0 96l262 256q36 33 82 33h66q67 0 67 -68v-1202h250q68 0 68 -67v-41q0 -68 -68 -68h-698q-68 0 -68 68z" />
<glyph unicode="2" horiz-adv-x="1144" d="M98 68v43q0 83 24.5 156.5t65.5 130t94 107.5t111.5 94t117.5 83.5t112 80.5t94 81.5t65.5 91.5t24.5 104q0 107 -72.5 173.5t-187.5 66.5q-150 0 -256 -133q-49 -53 -96 -14l-37 28q-55 42 -19 92q25 35 58 67.5t84.5 69t124.5 58.5t155 22q200 0 328.5 -114.5 t128.5 -300.5q0 -76 -23.5 -144t-64 -120.5t-92.5 -100.5t-109.5 -88.5t-115.5 -79t-110.5 -77.5t-93 -79t-65 -88.5t-25.5 -101.5h654q67 0 67 -67v-41q0 -68 -67 -68h-803q-32 0 -52 17.5t-20 50.5z" />
<glyph unicode="3" horiz-adv-x="1138" d="M98 223l33 47q39 50 94 13q142 -115 297 -115q124 0 209.5 74.5t85.5 189.5q0 127 -97 196.5t-239 69.5h-45q-53 0 -76 50l-6 12q-21 47 17 88l278 330q21 24 43.5 47.5t34.5 34.5l12 12v4q-43 -6 -123 -6h-421q-32 0 -50 17.5t-18 49.5v41q0 68 68 68h729q67 0 67 -64 v-18q0 -49 -30 -82l-363 -418q61 -6 118.5 -24.5t114 -53t98 -81.5t67.5 -115.5t26 -149.5q0 -93 -35.5 -177.5t-98.5 -148t-156.5 -101.5t-201.5 -38q-223 0 -421 154q-49 40 -11 94z" />
<glyph unicode="4" horiz-adv-x="1222" d="M47 455v12q0 43 27 84l614 852q28 43 80 43h113q67 0 67 -68v-819h129q32 0 50 -17.5t18 -49.5v-37q0 -68 -58 -68h-139v-319q0 -68 -67 -68h-66q-67 0 -67 68v319h-633q-68 0 -68 68zM272 559h476v526q0 30 2.5 66t5.5 57l2 21h-4q-35 -68 -72 -119l-410 -547v-4z" />
<glyph unicode="5" horiz-adv-x="1132" d="M123 225l33 45q39 50 92 9q116 -111 266 -111q131 0 224 82t93 211t-94 213t-235 84q-94 0 -199 -51q-51 -18 -90 -5l-18 7q-56 22 -50 79l62 594q6 64 69 64h598q68 0 68 -68v-41q0 -67 -68 -67h-485l-35 -305q-1 -19 -3.5 -38t-4.5 -29l-2 -9h4q9 5 25.5 12.5t65.5 20 t96 12.5q149 0 264.5 -63.5t177 -170.5t61.5 -237q0 -209 -146.5 -348.5t-365.5 -139.5q-233 0 -397 158q-50 41 -6 92z" />
<glyph unicode="6" horiz-adv-x="1212" d="M113 653q0 96 17.5 192t52 188t89.5 171t125 138.5t164.5 93.5t202.5 34q121 0 217 -34q64 -22 39 -86l-19 -52q-11 -32 -31.5 -41t-49.5 0q-79 27 -148 27q-97 0 -177 -42t-132.5 -113t-84.5 -156.5t-44 -181.5h4q46 64 135 104.5t199 40.5q197 0 321.5 -133t124.5 -332 q0 -216 -131.5 -356t-335.5 -140q-233 0 -385.5 188t-152.5 490zM324 553q0 -85 40.5 -174.5t118 -153t168.5 -63.5q121 0 192.5 83t71.5 216q0 134 -80 218.5t-223 84.5q-120 0 -204 -62.5t-84 -148.5z" />
<glyph unicode="7" horiz-adv-x="1054" d="M55 1337v41q0 68 68 68h831q68 0 68 -64v-32q0 -47 -18 -82l-611 -1219q-22 -49 -78 -49h-67q-38 0 -52 22.5t3 57.5l524 1059q19 36 39 69.5t30 48.5l11 15v4q-29 -6 -101 -6h-579q-68 0 -68 67z" />
<glyph unicode="8" horiz-adv-x="1226" d="M111 408q0 65 21 127t47 102t65 80t57 54t41 30q-174 116 -174 291q0 74 28 140.5t82 120.5t142 85.5t198 31.5q204 0 331.5 -104.5t127.5 -275.5q0 -193 -172 -379q205 -123 205 -314q0 -83 -35.5 -159t-98.5 -134.5t-157.5 -93.5t-204.5 -35q-217 0 -360 123.5 t-143 309.5zM313 428q0 -121 89 -197.5t212 -76.5q116 0 202.5 70t86.5 173q0 31 -9.5 58t-23.5 48t-40 42t-50 35.5t-63 33.5t-69.5 32t-78.5 33.5t-82 35.5q-24 -18 -35 -27t-42.5 -40t-48.5 -58.5t-32.5 -71.5t-15.5 -90zM367 1090q0 -30 9.5 -57.5t23 -48.5t39.5 -42 t48.5 -35.5t60 -33t63.5 -29.5t71 -30t70 -30q127 137 127 283q0 106 -72 166.5t-189 60.5q-118 0 -184.5 -58t-66.5 -146z" />
<glyph unicode="9" horiz-adv-x="1212" d="M94 981q0 214 131.5 351.5t333.5 137.5q115 0 215 -49t172 -136t113 -213.5t41 -276.5q0 -117 -24 -231t-76.5 -221t-127 -188.5t-184 -130.5t-239.5 -49q-125 0 -218 37q-62 18 -38 84l18 54q11 31 32 39t50 -1q96 -26 147 -26q78 0 146 28t116.5 75t86 111t59 134 t31.5 145h-5q-46 -64 -137.5 -103.5t-197.5 -39.5q-194 0 -319.5 134t-125.5 335zM297 985q0 -134 80 -218.5t223 -84.5q120 0 204.5 63t84.5 148q0 63 -24.5 131.5t-66.5 126.5t-105 95.5t-132 37.5q-121 0 -192.5 -83t-71.5 -216z" />
<glyph unicode=":" horiz-adv-x="475" d="M135 68v75q0 68 66 68h73q68 0 68 -68v-75q0 -68 -68 -68h-73q-66 0 -66 68zM135 893v76q0 67 66 67h73q68 0 68 -67v-76q0 -68 -68 -68h-73q-66 0 -66 68z" />
<glyph unicode=";" horiz-adv-x="559" d="M98 -180l90 338q15 57 76 57h64q38 0 52.5 -21.5t0.5 -56.5l-123 -338q-17 -53 -78 -53h-24q-35 0 -50.5 20t-7.5 54zM201 889v80q0 67 67 67h72q68 0 68 -67v-80q0 -68 -68 -68h-72q-67 0 -67 68z" />
<glyph unicode="&#x3c;" d="M121 571v23q0 58 51 80l823 366q35 15 57.5 1.5t22.5 -50.5v-41q0 -55 -53 -78l-680 -286v-4l680 -289q53 -20 53 -78v-39q0 -38 -22.5 -52t-57.5 1l-823 369q-51 19 -51 77z" />
<glyph unicode="=" d="M139 377v24q0 68 68 68h842q32 0 49.5 -18t17.5 -50v-24q0 -32 -17.5 -50t-49.5 -18h-842q-68 0 -68 68zM139 764v24q0 68 68 68h842q67 0 67 -68v-24q0 -32 -17.5 -50t-49.5 -18h-842q-68 0 -68 68z" />
<glyph unicode="&#x3e;" d="M180 176v39q0 58 51 78l680 289v4l-680 286q-51 23 -51 78v41q0 38 21.5 51.5t56.5 -0.5l825 -368q52 -24 52 -80v-23q0 -56 -52 -77l-825 -369q-35 -15 -56.5 -1t-21.5 52z" />
<glyph unicode="?" horiz-adv-x="933" d="M94 1292q-39 58 12 92q140 91 304 91q179 0 303.5 -104.5t124.5 -270.5q0 -67 -19 -124t-50 -98.5t-68 -79t-75 -71t-70 -67.5t-54 -77t-25 -91l-2 -43q-9 -52 -65 -52h-60q-32 0 -49.5 18t-17.5 50v41q0 58 19 109.5t50 89.5t68 73.5t74 69t68 67.5t50 78t19 92 q0 87 -67 145t-169 58q-92 0 -178 -51q-64 -31 -96 18zM276 68v65q0 68 68 68h72q67 0 67 -68v-65q0 -68 -67 -68h-72q-68 0 -68 68z" />
<glyph unicode="@" horiz-adv-x="1626" d="M106 494q0 156 59 296t159 241t239 160.5t293 59.5q142 0 247.5 -33.5t165.5 -93t88.5 -131.5t28.5 -157v-580h80q68 0 68 -68v-14q0 -68 -68 -68h-491q-187 0 -305.5 114t-118.5 274q0 102 51.5 189t149.5 140.5t223 53.5h221q-3 91 -91 150.5t-241 59.5 q-155 0 -284 -81.5t-202 -217.5t-73 -294q0 -230 143.5 -396.5t372.5 -189.5q66 -6 66 -70v-26q0 -33 -18.5 -51t-51.5 -15q-206 15 -368.5 118t-252.5 268t-90 362zM752 496q0 -101 68 -170.5t171 -69.5h205v483h-201q-106 0 -174.5 -70.5t-68.5 -172.5z" />
<glyph unicode="A" horiz-adv-x="1271" d="M37 78l475 1313q17 55 76 55h98q59 0 76 -55l475 -1313q5 -16 5 -28q0 -16 -8 -28q-15 -22 -52 -22h-70q-58 0 -76 55l-129 361h-545l-126 -361q-15 -55 -74 -55h-70q-38 0 -52 21q-8 11 -8 27q0 14 5 30zM416 584h438l-160 458q-11 33 -25 84t-22 86l-8 35h-4 q-32 -131 -57 -205z" />
<glyph unicode="B" horiz-adv-x="1263" d="M184 68v1310q0 68 68 68h438q187 0 302.5 -98.5t115.5 -270.5q0 -105 -47 -186.5t-131 -124.5v-4q111 -33 174 -129t63 -221q0 -99 -37 -178.5t-101 -130t-148 -77t-181 -26.5h-448q-68 0 -68 68zM385 176h326q116 0 183 67.5t67 178.5t-68.5 179.5t-181.5 68.5h-326 v-494zM385 838h305q97 0 155 61t58 158t-58 155t-159 58h-301v-432z" />
<glyph unicode="C" horiz-adv-x="1447" d="M94 731q0 208 93 376.5t261.5 265.5t380.5 97q278 0 480 -149q27 -21 27 -48q0 -21 -15 -46l-27 -41q-21 -32 -50 -32q-20 0 -44 15q-171 115 -362 115q-123 0 -225 -43t-169 -118t-104 -175.5t-37 -214.5q0 -115 37.5 -218.5t105 -182t170 -124.5t224.5 -46 q212 0 393 141q25 19 47 19q26 0 47 -27l31 -41q17 -23 17 -44q0 -26 -27 -50q-224 -185 -514 -185q-218 0 -388 100.5t-261 272t-91 383.5z" />
<glyph unicode="D" horiz-adv-x="1492" d="M184 68v1310q0 68 68 68h412q335 0 534 -191.5t199 -529.5q0 -340 -199.5 -532.5t-533.5 -192.5h-412q-68 0 -68 68zM385 176h264q249 0 394 143t145 406q0 261 -145.5 403t-393.5 142h-264v-1094z" />
<glyph unicode="E" horiz-adv-x="1136" d="M184 68v1310q0 68 68 68h704q68 0 68 -68v-41q0 -67 -68 -67h-571v-453h453q67 0 67 -67v-41q0 -68 -67 -68h-453v-465h606q68 0 68 -67v-41q0 -68 -68 -68h-739q-68 0 -68 68z" />
<glyph unicode="F" horiz-adv-x="1034" d="M184 68v1310q0 68 68 68h661q68 0 68 -68v-41q0 -32 -18 -49.5t-50 -17.5h-528v-475h438q68 0 68 -68v-41q0 -68 -68 -68h-438v-550q0 -68 -68 -68h-65q-68 0 -68 68z" />
<glyph unicode="G" horiz-adv-x="1538" d="M94 719q0 158 56 297.5t153 239t234.5 157t293.5 57.5q160 0 284 -43.5t192 -91.5q30 -23 30 -50q0 -20 -16 -42l-29 -43q-20 -30 -51 -30q-19 0 -43 12q-165 102 -356 102q-162 0 -286 -75t-188.5 -201t-64.5 -281q0 -162 69.5 -291.5t190 -201.5t268.5 -72q74 0 144 19 t116.5 46.5t82.5 55t52 46.5l17 19v203h-168q-67 0 -67 67v41q0 32 17.5 50t49.5 18h285q67 0 67 -68v-591q0 -68 -67 -68h-39q-32 0 -50 15.5t-18 41.5v54l2 45h-4q-6 -7 -18 -19.5t-54.5 -43.5t-90 -55t-124.5 -43.5t-159 -19.5q-145 0 -275.5 56t-226.5 153t-152.5 236.5 t-56.5 298.5z" />
<glyph unicode="H" horiz-adv-x="1521" d="M184 68v1310q0 68 68 68h65q68 0 68 -68v-569h752v569q0 68 67 68h68q65 0 65 -68v-1310q0 -68 -65 -68h-68q-67 0 -67 68v567h-752v-567q0 -68 -68 -68h-65q-68 0 -68 68z" />
<glyph unicode="I" horiz-adv-x="569" d="M184 68v1310q0 68 68 68h65q68 0 68 -68v-1310q0 -68 -68 -68h-65q-68 0 -68 68z" />
<glyph unicode="J" horiz-adv-x="1069" d="M45 420q0 67 68 67h69q33 0 47 -15t19 -54q6 -116 61 -186t164 -70q46 0 85 14t72 43t51.5 80t18.5 119v852h-297q-65 0 -65 67v41q0 68 65 68h431q67 0 67 -68v-962q0 -91 -24.5 -166t-65.5 -125t-96 -84.5t-115.5 -50t-124.5 -15.5q-83 0 -157.5 26.5t-136.5 78 t-99 139.5t-37 201z" />
<glyph unicode="K" horiz-adv-x="1239" d="M184 68v1310q0 68 68 68h65q68 0 68 -68v-540h217l338 563q25 45 80 45h76q40 0 53.5 -23.5t-6.5 -58.5l-375 -604v-4l401 -676q14 -21 14 -38q1 -10 -5 -19q-14 -23 -54 -23h-84q-53 0 -79 47l-359 617h-217v-596q0 -68 -68 -68h-65q-68 0 -68 68z" />
<glyph unicode="L" horiz-adv-x="1044" d="M184 68v1310q0 68 68 68h65q68 0 68 -68v-1202h582q67 0 67 -67v-41q0 -68 -67 -68h-715q-68 0 -68 68z" />
<glyph unicode="M" horiz-adv-x="1730" d="M135 70l107 1312q6 64 69 64h92q59 0 76 -53l314 -729q15 -36 32.5 -84.5t28.5 -79.5l10 -31h4q37 115 70 195l313 729q17 53 76 53h92q64 0 70 -64l106 -1312v-6q0 -64 -65 -64h-66q-63 0 -69 66l-66 845q-4 39 -5 93v48.5v37.5l1 34h-4q-45 -133 -78 -213l-266 -598 q-20 -53 -78 -53h-68q-57 0 -77 53l-267 598l-77 217h-4q1 -35 1 -67q0 -86 -6 -150l-65 -845q-6 -66 -68 -66h-67q-66 0 -66 64v6z" />
<glyph unicode="N" horiz-adv-x="1523" d="M184 68v1310q0 68 68 68h78q55 0 82 -45l616 -895q23 -35 52.5 -87t47.5 -87l19 -35h4q-12 129 -12 209v872q0 68 67 68h66q67 0 67 -68v-1310q0 -68 -67 -68h-78q-55 0 -80 45l-618 893q-23 36 -52.5 88.5t-47.5 87.5l-19 35h-4q12 -129 12 -211v-870q0 -68 -68 -68h-65 q-68 0 -68 68z" />
<glyph unicode="O" horiz-adv-x="1669" d="M92 733q0 154 56 290.5t154 234.5t237 155t297 57t296.5 -57t235.5 -155t153 -234.5t56 -290.5q0 -158 -56 -298t-153 -241t-235.5 -160t-296.5 -59t-297 59t-236.5 160t-154 241t-56.5 298zM301 733q0 -120 40.5 -225.5t111.5 -181.5t170.5 -120t212.5 -44 q229 0 380.5 163.5t151.5 407.5q0 236 -151.5 393.5t-380.5 157.5q-151 0 -274 -72t-192 -198t-69 -281z" />
<glyph unicode="P" horiz-adv-x="1220" d="M184 68v1310q0 68 68 68h461q200 0 326 -124.5t126 -328.5t-126.5 -331t-325.5 -127h-328v-467q0 -68 -68 -68h-65q-68 0 -68 68zM385 711h295q130 0 205.5 75.5t75.5 206.5q0 130 -74.5 203.5t-204.5 73.5h-297v-559z" />
<glyph unicode="Q" horiz-adv-x="1671" d="M94 731q0 155 56 291.5t153.5 235t235.5 155.5t295 57q160 0 299 -57t236.5 -155.5t153.5 -235t56 -291.5q0 -133 -45 -256t-125 -221l119 -119q27 -23 27 -49q0 -22 -21 -45l-27 -29q-25 -25 -49 -25q-22 0 -43 21l-123 123q-195 -156 -458 -156q-211 0 -381 100.5 t-264.5 273.5t-94.5 382zM303 731q0 -158 69 -288t191 -205.5t271 -75.5q188 0 315 106l-121 121q-26 22 -26 47q0 23 22 47l27 27q25 28 49 28q21 0 41 -20l123 -125q106 145 106 338q0 237 -153.5 395t-382.5 158q-227 0 -379 -158t-152 -395z" />
<glyph unicode="R" horiz-adv-x="1263" d="M184 68v1310q0 68 68 68h389q185 0 270 -39q105 -47 166.5 -145.5t61.5 -233.5q0 -140 -69.5 -249t-188.5 -148v-4q18 -21 43 -66l260 -481q12 -21 12 -38q0 -12 -5 -20q-13 -22 -52 -22h-82q-57 0 -80 47l-283 528h-309v-507q0 -68 -68 -68h-65q-68 0 -68 68zM385 752 h291q118 0 188 73t70 195q0 166 -135 225q-58 25 -172 25h-242v-518z" />
<glyph unicode="S" horiz-adv-x="1099" d="M111 219l34 49q21 28 49 28q20 0 44 -15q161 -117 315 -117q115 0 184.5 56.5t69.5 150.5q0 64 -38.5 114.5t-100 85t-135.5 66.5t-148 69t-135.5 82.5t-100 117.5t-38.5 163q0 180 133.5 290.5t335.5 110.5q116 0 213 -34.5t149 -75.5q31 -22 31 -53q0 -18 -10 -39 l-29 -51q-19 -33 -49 -33q-19 0 -43 14q-140 84 -267 84q-114 0 -187 -55.5t-73 -147.5q0 -63 38.5 -111.5t100 -81t135.5 -63t148.5 -67.5t136 -82.5t100 -119t38.5 -167.5q0 -176 -124 -294t-335 -118q-138 0 -251.5 47t-182.5 103q-26 24 -26 49q0 22 18 45z" />
<glyph unicode="T" horiz-adv-x="1218" d="M12 1337v41q0 68 68 68h1061q65 0 65 -68v-41q0 -67 -65 -67h-430v-1202q0 -68 -68 -68h-68q-65 0 -65 68v1202h-430q-68 0 -68 67z" />
<glyph unicode="U" horiz-adv-x="1468" d="M166 512v866q0 68 67 68h68q66 0 66 -68v-864q0 -164 99.5 -258t266.5 -94q168 0 267.5 94.5t99.5 259.5v862q0 68 67 68h68q68 0 68 -68v-866q0 -241 -157 -389t-411 -148q-255 0 -412 148t-157 389z" />
<glyph unicode="V" horiz-adv-x="1275" d="M31 1368q-5 16 -5 30q0 16 8 27q14 21 52 21h78q59 0 76 -55l340 -967q12 -35 26 -84.5t22 -81.5l7 -33h4q30 121 55 199l344 967q17 55 76 55h76q38 0 52 -21q8 -11 8 -27q0 -13 -5 -30l-481 -1313q-17 -55 -76 -55h-98q-58 0 -78 55z" />
<glyph unicode="W" horiz-adv-x="1935" d="M80 1372q-3 12 -3 23q1 20 11 32q16 19 51 19h72q61 0 76 -60l239 -1001q8 -35 15 -73.5t9 -59.5l3 -21h4q12 74 35 154l268 1004q15 57 76 57h57q62 0 74 -57l268 -1004q10 -36 18.5 -74.5t11.5 -58.5l3 -21h4q11 76 29 154l252 1001q15 60 76 60h69q35 0 51 -20 q11 -14 11 -34q0 -9 -2 -20l-347 -1315q-15 -57 -75 -57h-113q-59 0 -74 57l-237 881q-12 41 -23 92t-17 82l-5 31h-6q-21 -113 -46 -205l-237 -881q-15 -57 -76 -57h-113q-60 0 -75 59z" />
<glyph unicode="X" horiz-adv-x="1202" d="M62 23q-5 9 -5 20q0 17 13 37l405 665l-377 621q-22 34 -8.5 57t53.5 23h86q51 0 80 -45l199 -346l92 -172h4q43 92 90 172l203 346q25 45 78 45h86q40 0 53.5 -23t-8.5 -57l-381 -621l408 -665q14 -21 14 -38q1 -10 -5 -19q-14 -23 -55 -23h-79q-54 0 -80 47l-236 397 l-92 166h-4q-41 -86 -88 -166l-234 -397q-26 -47 -79 -47h-78q-41 0 -55 23z" />
<glyph unicode="Y" horiz-adv-x="1161" d="M34 1423q14 23 54 23h82q55 0 78 -47l244 -428q19 -36 41 -82t35 -73l12 -28h4q43 101 88 183l241 428q23 47 78 47h82q40 0 53 -23q6 -9 6 -20q0 -17 -12 -37l-438 -754v-544q0 -68 -68 -68h-67q-68 0 -68 68v544l-438 754q-12 20 -12 37q0 11 5 20z" />
<glyph unicode="Z" horiz-adv-x="1204" d="M66 68v20q0 45 28 86l668 965q24 36 50 69.5t40 48.5l14 15v4q-38 -6 -108 -6h-588q-68 0 -68 67v41q0 68 68 68h881q67 0 67 -66v-20q0 -44 -26 -86l-670 -967q-24 -36 -50.5 -68.5t-40.5 -47.5l-14 -15v-4q39 4 109 4h633q67 0 67 -67v-41q0 -68 -67 -68h-926 q-67 0 -67 68z" />
<glyph unicode="[" horiz-adv-x="583" d="M164 -127v1567q0 65 67 65h205q66 0 66 -65v-17q0 -67 -64 -67h-100v-1399h98q66 0 66 -68v-16q0 -68 -66 -68h-205q-67 0 -67 68z" />
<glyph unicode="\" horiz-adv-x="808" d="M80 1448q-11 34 4.5 55t52.5 21h35q61 0 78 -56l479 -1478q11 -34 -4.5 -55t-52.5 -21h-37q-57 0 -78 55z" />
<glyph unicode="]" horiz-adv-x="583" d="M82 -111q0 68 65 68h99v1399h-99q-65 0 -65 67v17q0 65 65 65h205q68 0 68 -65v-1567q0 -68 -68 -68h-205q-65 0 -65 68v16z" />
<glyph unicode="^" d="M175 528.5q-14 22.5 1 57.5l352 809q19 51 78 51h19q58 0 77 -51l353 -809q15 -35 0.5 -57.5t-54.5 -22.5h-34q-57 0 -78 53l-275 668l-272 -668q-21 -53 -78 -53h-37q-38 0 -52 22.5z" />
<glyph unicode="_" horiz-adv-x="1126" d="M12 -68q0 68 68 68h967q67 0 67 -68v-24q0 -68 -67 -68h-967q-32 0 -50 18t-18 50v24z" />
<glyph unicode="`" horiz-adv-x="1021" d="M376 1782q10 24 52 24h61q54 0 80 -47l80 -139q18 -29 9.5 -51.5t-42.5 -22.5h-41q-48 0 -81 41l-101 137q-27 34 -17 58z" />
<glyph unicode="a" horiz-adv-x="1058" d="M59 283q0 67 23.5 121t61 90.5t92 63.5t108 42t118 24.5t114 12t102.5 2.5h53v27q0 227 -225 227q-119 0 -234 -66q-20 -9 -37 -9q-33 0 -55 34l-16 29q-12 23 -12 42q0 32 34 50q153 88 336 88q194 0 301 -105t107 -301v-587q0 -68 -68 -68h-51q-68 0 -68 68v61 q0 17 1.5 33t3.5 24l2 7h-5q-4 -9 -12 -23.5t-37 -52t-64.5 -66.5t-95.5 -52.5t-128 -23.5q-144 0 -246.5 84t-102.5 224zM260 299q0 -67 51.5 -116.5t141.5 -49.5q83 0 149 51t98.5 125.5t32.5 153.5v45h-53q-420 0 -420 -209z" />
<glyph unicode="b" horiz-adv-x="1212" d="M145 68v1310q0 68 68 68h63q66 0 66 -68v-420q0 -23 -1.5 -45t-2.5 -33l-2 -10h4q4 8 11.5 21t36.5 45.5t64.5 58t96 46t129.5 20.5q204 0 328 -150t124 -391q0 -246 -131.5 -395.5t-336.5 -149.5q-68 0 -127.5 20.5t-95.5 49.5t-62 57.5t-37 49.5l-10 20h-4q6 -24 6 -61 v-52q0 -28 -18 -43.5t-50 -15.5h-51q-68 0 -68 68zM338 518q0 -98 31 -180.5t99 -136.5t161 -54q129 0 215 99t86 270q0 167 -81.5 269t-211.5 102q-127 0 -213 -93.5t-86 -275.5z" />
<glyph unicode="c" horiz-adv-x="1087" d="M76 518q0 232 156 387.5t397 155.5q200 0 342 -111q30 -20 30 -46q0 -21 -18 -46l-20 -31q-20 -30 -49 -30q-20 0 -44 14q-108 78 -231 78q-157 0 -258.5 -104.5t-101.5 -264.5t102.5 -266.5t261.5 -106.5q138 0 264 95q22 15 42 15q29 0 50 -34l17 -30q12 -22 12 -40 q0 -29 -31 -51q-154 -127 -368 -127q-243 0 -398 154t-155 389z" />
<glyph unicode="d" horiz-adv-x="1212" d="M80 518q0 245 131 394t338 149q67 0 124.5 -18.5t92 -44.5t59.5 -52t35 -44l10 -19h4q-6 30 -6 69v426q0 68 68 68h63q68 0 68 -68v-1310q0 -68 -68 -68h-53q-67 0 -67 63v60l4 51h-4q-4 -8 -11 -21.5t-36 -48t-64.5 -60.5t-97.5 -47.5t-133 -21.5q-209 0 -333 149.5 t-124 393.5zM283 518q0 -168 81 -269.5t211 -101.5q60 0 112 21.5t95 65t67.5 117.5t24.5 169q0 71 -18.5 135.5t-53.5 117t-92.5 83.5t-129.5 31q-127 0 -212 -99t-85 -270z" />
<glyph unicode="e" horiz-adv-x="1116" d="M78 518q0 244 146.5 393.5t371.5 149.5q211 0 328.5 -136t117.5 -358q0 -28 -19.5 -48.5t-49.5 -20.5h-692q9 -163 111.5 -257t246.5 -94q138 0 248 82q23 11 41 11q32 0 51 -33l18 -31q16 -26 11 -50.5t-31 -39.5q-157 -111 -350 -111q-160 0 -286 71.5t-194.5 195 t-68.5 276.5zM289 629h555q-4 132 -74.5 204t-177.5 72q-116 0 -199 -73.5t-104 -202.5z" />
<glyph unicode="f" horiz-adv-x="659" d="M55 932v26q0 32 18 50t50 18h65v49q0 93 29.5 165t71.5 111.5t97 64.5t97 32.5t80 7.5h25q67 0 67 -67v-39q0 -62 -71 -68q-29 -2 -50.5 -5.5t-51 -16.5t-48.5 -34.5t-33 -62.5t-14 -96v-41h178q32 0 50 -18t18 -50v-26q0 -32 -18 -50t-50 -18h-178v-796q0 -68 -68 -68 h-63q-68 0 -68 68v796h-65q-32 0 -50 18t-18 50z" />
<glyph unicode="g" horiz-adv-x="1198" d="M82 545q0 228 122.5 372t340.5 144q72 0 131.5 -18t93.5 -43.5t57.5 -51t32.5 -43.5l8 -18h4q-4 13 -4 33v59q0 57 68 57h49q68 0 68 -67v-926q0 -99 -29.5 -180t-78.5 -134.5t-116 -90t-139.5 -52.5t-150.5 -16q-171 0 -301 57q-43 18 -43 55q0 16 8 35l14 35 q18 42 54 42q15 0 32 -7q122 -45 225 -45q68 0 125.5 16t103 49.5t71.5 91t26 134.5v90l6 65h-4q-95 -176 -307 -176q-142 0 -249 70t-162.5 190.5t-55.5 272.5zM285 553q0 -168 80 -268.5t219 -100.5q56 0 103.5 18.5t87 58t61.5 110.5t22 168q0 350 -287 350 q-137 0 -211.5 -90t-74.5 -246z" />
<glyph unicode="h" horiz-adv-x="1212" d="M145 68v1310q0 68 68 68h63q66 0 66 -68v-469q0 -22 -1.5 -43.5t-2.5 -31.5l-2 -11h4q18 40 51 79.5t80.5 76.5t114.5 59.5t141 22.5q182 0 269 -98.5t87 -298.5v-596q0 -68 -67 -68h-64q-67 0 -67 68v550q0 60 -8 103t-28 81t-60.5 57.5t-100.5 19.5q-149 0 -247.5 -110 t-98.5 -277v-424q0 -68 -66 -68h-63q-68 0 -68 68z" />
<glyph unicode="i" horiz-adv-x="485" d="M141 1311v67q0 68 68 68h70q67 0 67 -68v-67q0 -32 -17.5 -50t-49.5 -18h-70q-68 0 -68 68zM143 68v901q0 67 68 67h63q68 0 68 -67v-901q0 -68 -68 -68h-63q-68 0 -68 68z" />
<glyph unicode="j" horiz-adv-x="487" d="M-123 -317q0 35 18 49.5t50 17.5q24 2 43 5.5t44 12.5t43.5 25t35 39.5t25.5 60.5t9 84v992q0 67 68 67h63q66 0 66 -67v-1000q0 -96 -30 -170.5t-72 -114.5t-97 -65.5t-96 -33t-78 -7.5h-24q-68 0 -68 68v37zM141 1311v67q0 68 68 68h70q67 0 67 -68v-67q0 -68 -67 -68 h-70q-32 0 -50 18t-18 50z" />
<glyph unicode="k" horiz-adv-x="1042" d="M145 68v1310q0 68 68 68h63q66 0 66 -68v-721h150l251 336q25 43 80 43h76q41 0 53.5 -24t-12.5 -58l-287 -374v-5l332 -493q14 -22 14 -39q0 -9 -5 -19q-13 -24 -54 -24h-82q-54 0 -80 47l-282 438h-154v-417q0 -68 -66 -68h-63q-68 0 -68 68z" />
<glyph unicode="l" horiz-adv-x="536" d="M143 283v1095q0 68 68 68h63q68 0 68 -68v-1071q0 -78 26 -105.5t68 -31.5q53 -7 53 -59v-50q0 -69 -69 -69q-39 0 -72 5t-73 23t-67 48t-46 85t-19 130z" />
<glyph unicode="m" horiz-adv-x="1847" d="M143 68v901q0 67 68 67h57q68 0 68 -67v-92l-6 -60h4q41 97 142 170.5t218 73.5q256 0 312 -236h4q44 97 145 166.5t221 69.5q175 0 258.5 -98.5t83.5 -298.5v-596q0 -68 -67 -68h-64q-67 0 -67 68v553q0 60 -7.5 103t-26 80.5t-56 57t-93.5 19.5q-93 0 -164.5 -58.5 t-107 -148t-35.5 -191.5v-415q0 -68 -65 -68h-66q-65 0 -65 68v553q0 58 -6 99t-24 80.5t-56 60t-95 20.5q-94 0 -167 -60t-108.5 -149.5t-35.5 -188.5v-415q0 -68 -68 -68h-63q-68 0 -68 68z" />
<glyph unicode="n" horiz-adv-x="1210" d="M143 68v901q0 67 68 67h57q68 0 68 -67v-92l-6 -60h4q17 38 47.5 76.5t78 78.5t117.5 64.5t150 24.5q181 0 267.5 -98.5t86.5 -298.5v-596q0 -68 -67 -68h-64q-67 0 -67 68v550q0 60 -7.5 103t-27.5 81t-60 57.5t-100 19.5q-150 0 -248 -110t-98 -273v-428q0 -68 -68 -68 h-63q-68 0 -68 68z" />
<glyph unicode="o" horiz-adv-x="1267" d="M76 520q0 153 74.5 277.5t202 194t280.5 69.5q115 0 217.5 -41t178 -112t119.5 -172t44 -216q0 -154 -75 -279.5t-203 -195.5t-281 -70t-280.5 70t-202 195.5t-74.5 279.5zM276 520q0 -160 104.5 -266.5t252.5 -106.5q150 0 253 106t103 267q0 159 -103 264t-253 105 q-149 0 -253 -105t-104 -264z" />
<glyph unicode="p" horiz-adv-x="1212" d="M145 -342v1311q0 67 68 67h47q68 0 68 -57v-61l-4 -56h4q4 8 11.5 21.5t36.5 48t65 60.5t99 47.5t136 21.5q208 0 331 -149.5t123 -393.5q0 -245 -131.5 -394t-336.5 -149q-66 0 -123.5 19t-92.5 46t-60 54.5t-36 46.5l-10 19h-4q6 -37 6 -90v-412q0 -68 -66 -68h-63 q-68 0 -68 68zM338 514q0 -95 32.5 -177t101 -136t159.5 -54q128 0 213.5 99t85.5 270q0 167 -81.5 269t-211.5 102q-128 0 -213.5 -93.5t-85.5 -279.5z" />
<glyph unicode="q" horiz-adv-x="1212" d="M80 518q0 245 131.5 394t339.5 149q69 0 128.5 -20t95 -48t61.5 -56.5t36 -48.5l11 -20h4q-4 25 -4 58v53q0 57 67 57h49q68 0 68 -67v-1311q0 -68 -68 -68h-63q-68 0 -68 68v420q0 24 1.5 46.5t2.5 33.5l2 10h-4q-3 -8 -10 -21t-35 -46t-63 -58.5t-96.5 -46.5 t-133.5 -21q-203 0 -327.5 150.5t-124.5 392.5zM283 518q0 -168 81 -269.5t211 -101.5q60 0 112 21.5t95 65t67.5 117.5t24.5 169q0 71 -18.5 135.5t-53.5 117t-92.5 83.5t-129.5 31q-127 0 -212 -99t-85 -270z" />
<glyph unicode="r" horiz-adv-x="729" d="M143 68v901q0 67 68 67h57q68 0 68 -67v-119l-6 -78h4q37 112 122 192t195 80q66 0 66 -67v-57q0 -68 -74 -68q-73 0 -132 -37t-95 -98.5t-55 -135.5t-19 -153v-360q0 -68 -68 -68h-63q-68 0 -68 68z" />
<glyph unicode="s" horiz-adv-x="899" d="M88 180l21 29q20 26 42 29t52 -15q127 -84 254 -84q79 0 127.5 36.5t48.5 100.5q0 41 -29.5 72t-76.5 52.5t-104 41.5t-114.5 46t-104.5 59.5t-76.5 88.5t-29.5 126q0 142 107.5 220.5t267.5 78.5q161 0 287 -80q27 -13 32.5 -38t-10.5 -52l-18 -31q-17 -33 -49 -33 q-18 0 -41 11q-101 59 -211 59q-77 0 -125.5 -33.5t-48.5 -97.5q0 -42 29.5 -73.5t76.5 -52.5t104 -40.5t114 -45.5t104 -59t76.5 -88t29.5 -126q0 -133 -103 -219.5t-269 -86.5q-199 0 -349 113q-30 20 -30 47q0 21 16 45z" />
<glyph unicode="t" horiz-adv-x="700" d="M55 932v26q0 68 68 68h74v227q0 68 67 68h60q67 0 67 -68v-227h180q68 0 68 -68v-26q0 -68 -66 -68h-182v-461q0 -56 13.5 -99t33.5 -66.5t48.5 -39t51.5 -21t50 -7.5q40 -3 55.5 -18t15.5 -50v-43q0 -67 -81 -67q-165 0 -275 97.5t-110 283.5v491h-72q-66 0 -66 68z" />
<glyph unicode="u" horiz-adv-x="1202" d="M131 373v596q0 67 68 67h63q66 0 66 -67v-551q0 -59 7.5 -101.5t27.5 -80t60 -57t99 -19.5q103 0 181.5 55.5t117.5 143.5t39 192v418q0 67 68 67h63q68 0 68 -67v-901q0 -68 -68 -68h-57q-68 0 -68 68v92l6 59h-4q-18 -41 -51.5 -81.5t-81 -78t-114 -61t-138.5 -23.5 q-177 0 -264.5 97t-87.5 301z" />
<glyph unicode="v" horiz-adv-x="1021" d="M39 958q-6 16 -6 29q0 15 8 27q14 22 51 22h70q59 0 76 -55l233 -645q9 -25 18 -60.5t14 -57.5l5 -23h4q19 84 37 141l233 645q17 55 76 55h70q38 0 52 -22q8 -11 7 -26q0 -14 -6 -30l-336 -905q-17 -53 -76 -53h-114q-59 0 -76 53z" />
<glyph unicode="w" horiz-adv-x="1644" d="M47 961q-4 14 -4 26q0 17 9 29q15 20 52 20h68q61 0 76 -57l203 -670l24 -110h4q13 57 29 110l209 668q12 57 74 57h63q61 0 76 -57l209 -668l26 -110h4q11 57 27 110l203 670q12 57 74 57h67q37 0 52 -20q9 -12 9 -29q0 -12 -4 -26l-292 -904q-15 -57 -76 -57h-101 q-60 0 -75 57l-199 609q-8 24 -15.5 52t-10.5 44l-3 16h-4q-12 -59 -30 -112l-197 -609q-15 -57 -76 -57h-102q-61 0 -76 57z" />
<glyph unicode="x" horiz-adv-x="989" d="M62 24q-5 8 -5 18q0 18 15 40l301 450l-283 422q-22 35 -9 58.5t54 23.5h78q55 0 78 -47l168 -268l33 -62h4q20 35 34 62l166 268q26 47 80 47h76q42 0 55 -23.5t-10 -58.5l-281 -422l302 -450q14 -22 14 -40q0 -10 -4 -18q-14 -24 -56 -24h-73q-54 0 -80 47l-191 299 l-32 57h-4q-15 -32 -31 -57l-191 -299q-26 -47 -80 -47h-73q-42 0 -55 24z" />
<glyph unicode="y" horiz-adv-x="1028" d="M22 -360q-3 9 -3 18q0 17 8 33l16 35q16 38 52 38q11 0 24 -4q55 -22 82 -22q59 0 105 44t73 112l51 118l-401 946q-8 18 -8 32t7 24q15 22 52 22h80q59 0 76 -53l243 -625l37 -125h4q17 70 35 123l236 625q17 55 75 55h74q37 0 52 -22q7 -11 7 -26q0 -13 -6 -30 l-456 -1140q-45 -119 -135 -183.5t-201 -64.5q-62 0 -144 33q-28 12 -35 37z" />
<glyph unicode="z" horiz-adv-x="1024" d="M63 57v17q0 39 29 78l494 618q20 24 41.5 48t32.5 36l12 12v4q-33 -4 -101 -4h-417q-68 0 -68 68v35q0 67 68 67h718q68 0 68 -57v-16q0 -39 -29 -78l-493 -621q-19 -24 -41 -47.5t-35 -34.5l-12 -12v-4q32 4 100 4h459q67 0 67 -66v-36q0 -68 -67 -68h-758q-68 0 -68 57 z" />
<glyph unicode="{" horiz-adv-x="665" d="M55 637v59q0 27 13.5 43t42.5 31q118 58 118 211v170q0 88 23.5 156t56.5 105t76 60t75 30t60 7h23q67 0 67 -67v-25q0 -67 -67 -67q-16 0 -30.5 -3t-36 -15.5t-36.5 -34.5t-26 -63.5t-11 -98.5v-205q0 -41 -9 -78t-23.5 -62.5t-32 -47t-35.5 -34.5t-32.5 -22t-23.5 -12 l-9 -4v-4q7 -2 18 -6.5t39.5 -24.5t50 -46t39.5 -75t18 -108v-232q0 -56 11 -97.5t26 -63.5t36 -35t36 -16t31 -3q67 0 67 -68v-24q0 -32 -17.5 -50t-49.5 -18h-23q-28 0 -60 7t-75 30.5t-76 60.5t-56.5 105t-23.5 156v196q0 89 -35.5 138t-82.5 69q-29 15 -42.5 31 t-13.5 45z" />
<glyph unicode="|" horiz-adv-x="497" d="M162 -258v1812q0 68 67 68h39q68 0 68 -68v-1812q0 -68 -68 -68h-39q-67 0 -67 68z" />
<glyph unicode="}" horiz-adv-x="667" d="M55 -109q0 68 68 68q16 0 30.5 3t35.5 16t36 35t26 63.5t11 97.5v232q0 59 17 107.5t41.5 75.5t49 45.5t41.5 25.5l17 6v4q-7 2 -18 7t-39.5 26t-50.5 47.5t-40 74.5t-18 105v205q0 57 -11 98.5t-26 63.5t-36 34.5t-35.5 15.5t-30.5 3q-32 0 -50 17.5t-18 49.5v25 q0 67 68 67h22q29 0 61 -7t74.5 -30t76 -60t56.5 -105t23 -156v-170q0 -153 119 -211q29 -15 42 -31t13 -43v-59q0 -29 -13 -45t-42 -31q-47 -20 -83 -69t-36 -138v-196q0 -88 -23 -156t-56.5 -105t-76 -60.5t-75 -30.5t-60.5 -7h-22q-32 0 -50 18t-18 50v24z" />
<glyph unicode="~" horiz-adv-x="1206" d="M121 506q18 130 90.5 194t189.5 64q50 0 93 -15t70.5 -37t55.5 -48.5t51 -48.5t55.5 -37t68.5 -15q100 0 127 129q12 33 27 48.5t44 15.5h31q33 0 50 -19.5t13 -52.5q-13 -139 -86 -206.5t-194 -67.5q-59 0 -107.5 20.5t-80 49.5t-60.5 58t-65.5 49.5t-79.5 20.5 q-101 0 -127 -129q-11 -32 -27 -46.5t-45 -14.5h-31q-34 0 -51.5 23t-11.5 65z" />
<glyph unicode="&#xa1;" horiz-adv-x="518" d="M156 903v66q0 67 67 67h70q67 0 67 -67v-66q0 -67 -67 -67h-70q-67 0 -67 67zM158 -342l10 913q2 32 20 50t50 18h45q32 0 49.5 -18t17.5 -50l10 -913q0 -68 -65 -68h-70q-67 0 -67 68z" />
<glyph unicode="&#xa2;" horiz-adv-x="1144" d="M98 723q0 227 116.5 387.5t313.5 187.5v105q0 67 66 67h16q64 0 64 -57v-115q115 -14 209.5 -84.5t146.5 -169.5q31 -60 -35 -88l-57 -22q-36 -9 -52.5 -1.5t-35.5 34.5q-90 147 -240 147q-147 0 -228 -108.5t-81 -284.5q0 -174 79.5 -280.5t229.5 -106.5t240 147 q36 52 88 33l57 -22q66 -28 35 -89q-51 -99 -146 -171t-210 -82v-109q0 -68 -64 -68h-16q-66 0 -66 68v109q-197 27 -313.5 187t-116.5 386z" />
<glyph unicode="&#xa3;" horiz-adv-x="1183" d="M109 68v41q0 67 67 67h62v477h-43q-62 0 -62 66v12q0 66 62 66h43v278q0 171 125.5 283t318.5 112q153 0 289 -88q55 -40 8 -94l-31 -41q-37 -45 -94 -10q-86 49 -170 49q-111 0 -176.5 -62.5t-65.5 -156.5v-270h310q67 0 67 -66v-12q0 -66 -67 -66h-310v-477h598 q68 0 68 -67v-41q0 -68 -68 -68h-864q-67 0 -67 68z" />
<glyph unicode="&#xa5;" horiz-adv-x="1208" d="M77 1423.5q14 22.5 54 22.5h84q58 0 78 -51l221 -400q20 -43 42 -95t34 -83l12 -31h4q43 113 88 209l221 400q20 51 78 51h84q40 0 54 -22.5t-5 -57.5l-297 -526h142q67 0 67 -58v-12q0 -59 -67 -59h-211l-53 -99v-75h264q67 0 67 -58v-12q0 -59 -67 -59h-264v-340 q0 -68 -68 -68h-70q-67 0 -67 68v340h-266q-68 0 -68 59v12q0 58 68 58h266v75l-56 99h-210q-68 0 -68 59v12q0 58 59 58h152l-297 526q-19 35 -5 57.5z" />
<glyph unicode="&#xa7;" horiz-adv-x="899" d="M131 1120q0 153 104.5 251.5t282.5 98.5q131 0 234 -65q56 -35 16 -94l-18 -25q-35 -43 -93 -16q-77 35 -139 35q-97 0 -158 -53.5t-61 -153.5q0 -36 12 -82l121 -715q8 -34 -8 -54t-51 -20h-25q-62 0 -74 60l-133 739q-10 52 -10 94zM137 33l17 26q33 49 92 19 q68 -39 143 -39q94 0 155.5 56t61.5 159q0 40 -12 92l-119 696q-8 34 8.5 54t51.5 20h24q62 0 74 -59l131 -740q10 -55 10 -92q0 -155 -104.5 -253.5t-282.5 -98.5q-126 0 -233 68q-57 36 -17 92z" />
<glyph unicode="&#xa8;" horiz-adv-x="1021" d="M258 1667v72q0 67 68 67h28q68 0 68 -67v-72q0 -68 -68 -68h-28q-68 0 -68 68zM600 1667v72q0 67 68 67h28q68 0 68 -67v-72q0 -68 -68 -68h-28q-68 0 -68 68z" />
<glyph unicode="&#xa9;" horiz-adv-x="1671" d="M104 723q0 153 57.5 291.5t154.5 238.5t231.5 158.5t283.5 58.5q150 0 286.5 -58.5t235 -158.5t156.5 -238.5t58 -291.5t-58 -292t-156.5 -238.5t-235 -158.5t-286.5 -59q-149 0 -283.5 59t-231.5 158.5t-154.5 238.5t-57.5 292zM254 723q0 -126 44.5 -239t121.5 -194 t184 -128t227 -47q122 0 230.5 47.5t186.5 128t123.5 193.5t45.5 239t-45 239t-123 194t-187 128t-231 47q-120 0 -227 -47t-184 -128t-121.5 -194t-44.5 -239zM444 721q0 168 112 288.5t294 120.5q100 0 177 -45t118 -98q16 -24 13 -43.5t-19 -32.5l-27 -22 q-19 -17 -41 -12.5t-41 26.5q-76 86 -176 86q-119 0 -187.5 -77.5t-68.5 -192.5q0 -112 67.5 -189t188.5 -77q109 0 184 90q36 43 74 8l25 -19q40 -35 8 -79q-45 -54 -120.5 -98t-174.5 -44q-123 0 -217 57.5t-141.5 150t-47.5 202.5z" />
<glyph unicode="&#xaa;" horiz-adv-x="819" d="M127 598v8q0 53 68 53h428q67 0 67 -53v-8q0 -55 -67 -55h-428q-68 0 -68 55zM127 983q0 223 387 223h21v13q0 129 -129 129q-59 0 -123 -31q-55 -22 -76 18l-6 13q-27 49 32 75q88 43 189 43q127 0 193.5 -66.5t66.5 -191.5v-344q0 -67 -61 -67h-9q-63 0 -63 63v43h-4 q-2 -5 -6.5 -13t-22 -29t-37.5 -37t-54.5 -29t-72.5 -13q-91 0 -158 54t-67 147zM276 991q0 -37 28 -62.5t77 -25.5q67 0 110.5 56.5t43.5 125.5v17h-25q-234 0 -234 -111z" />
<glyph unicode="&#xab;" horiz-adv-x="1071" d="M102 530q-41 48 0 95l265 336q32 38 84 38h41q43 0 54.5 -23.5t-16.5 -57.5l-268 -340l268 -338q28 -34 19 -58t-49 -24h-49q-51 0 -84 39zM514 530q-38 48 0 95l266 336q32 38 82 38h43q43 0 54.5 -23.5t-15.5 -57.5l-268 -340l268 -338q28 -34 18 -58t-51 -24h-49 q-49 0 -82 39z" />
<glyph unicode="&#xac;" horiz-adv-x="1263" d="M135 764v24q0 68 68 68h841q68 0 68 -68v-411q0 -68 -68 -68h-30q-68 0 -68 68v319h-743q-68 0 -68 68z" />
<glyph unicode="&#xad;" horiz-adv-x="860" d="M131 563v41q0 32 18 50t50 18h463q67 0 67 -68v-41q0 -67 -67 -67h-463q-68 0 -68 67z" />
<glyph unicode="&#xae;" horiz-adv-x="1671" d="M104 723q0 153 57.5 291.5t155 238.5t232 158.5t282.5 58.5q202 0 371 -99.5t267 -271t98 -376.5t-98 -377t-267 -271.5t-371 -99.5q-197 0 -364.5 99.5t-265 272t-97.5 376.5zM254 723q0 -126 44.5 -239t121.5 -194t184 -128t227 -47q122 0 231 47t187 128t123 194 t45 239t-45 239t-123 194t-187 128t-231 47q-120 0 -227 -47t-184 -128t-121.5 -194t-44.5 -239zM582 406v638q0 68 67 68h232q109 0 175 -64t66 -171q0 -82 -43.5 -136.5t-97.5 -68.5v-4q9 -8 27 -43l106 -207q19 -35 8.5 -56.5t-45.5 -21.5h-24q-58 0 -80 49l-119 250 h-127v-233q0 -66 -63 -66h-19q-63 0 -63 66zM727 745h123q58 0 91.5 35t33.5 97q0 59 -32.5 91.5t-90.5 32.5h-125v-256z" />
<glyph unicode="&#xaf;" horiz-adv-x="1021" d="M250 1671v15q0 65 67 65h388q67 0 67 -65v-15q0 -65 -67 -65h-388q-67 0 -67 65z" />
<glyph unicode="&#xb0;" horiz-adv-x="782" d="M80 1167q0 125 90.5 214t220.5 89q128 0 219.5 -89.5t91.5 -213.5q0 -126 -91.5 -214.5t-219.5 -88.5q-130 0 -220.5 88.5t-90.5 214.5zM240 1167q0 -63 43.5 -107t107.5 -44q63 0 107.5 44t44.5 107t-44.5 108.5t-107.5 45.5q-64 0 -107.5 -45t-43.5 -109z" />
<glyph unicode="&#xb1;" d="M86 571v25q0 68 68 68h391v436q0 67 67 67h33q32 0 50 -17.5t18 -49.5v-436h389q32 0 49.5 -18t17.5 -50v-25q0 -67 -67 -67h-389v-436q0 -68 -68 -68h-33q-67 0 -67 68v436h-391q-68 0 -68 67zM119 -262q0 67 67 67h883q68 0 68 -67v-25q0 -32 -18 -49.5t-50 -17.5h-883 q-67 0 -67 67v25z" />
<glyph unicode="&#xb2;" horiz-adv-x="731" d="M59 940q0 71 24 130t62.5 99.5t84.5 75t92.5 63.5t85 57.5t62.5 64.5t24 77q0 57 -42 95t-106 38q-65 0 -127 -53q-28 -20 -47.5 -21.5t-44.5 19.5l-8 6q-51 48 -4 92q109 99 239 99q128 0 211.5 -74.5t83.5 -194.5q0 -61 -22.5 -112t-59 -87t-80.5 -67t-89 -58t-82 -54 t-62 -61t-27 -73h369q68 0 68 -63v-8q0 -64 -68 -64h-469q-68 0 -68 74z" />
<glyph unicode="&#xb3;" horiz-adv-x="731" d="M72 1026l8 10q19 25 41 27t49 -14q71 -62 162 -62q68 0 118 45t50 111t-52.5 105.5t-121.5 39.5h-27q-52 0 -66 39q-15 40 19 82l145 168q9 10 22 22.5t21 19.5l9 7v4q-39 -6 -74 -6h-223q-68 0 -68 66v8q0 63 68 63h421q68 0 68 -49v-10q0 -37 -33 -76l-190 -221 q101 -15 169 -81t68 -181q0 -122 -89.5 -209.5t-227.5 -87.5q-155 0 -256 92q-50 36 -10 88z" />
<glyph unicode="&#xb4;" horiz-adv-x="1021" d="M364.5 1568.5q-12.5 22.5 6.5 53.5l82 137q26 47 79 47h60q42 0 53 -24t-16 -58l-101 -137q-33 -41 -82 -41h-34q-35 0 -47.5 22.5z" />
<glyph unicode="&#xb5;" horiz-adv-x="1290" d="M174 -342v1311q0 67 68 67h63q66 0 66 -67v-551q0 -59 7.5 -101.5t27.5 -80t59 -57t98 -19.5q155 0 247.5 115t92.5 276v418q0 67 68 67h63q68 0 68 -67v-901q0 -68 -68 -68h-57q-68 0 -68 68v86l4 59h-4q-11 -21 -26 -43.5t-49.5 -60t-74.5 -65t-103 -48.5t-132 -21 q-60 0 -106 16t-62 32l-16 16h-4q14 -101 14 -160v-221q0 -68 -67 -68h-41q-68 0 -68 68z" />
<glyph unicode="&#xb6;" horiz-adv-x="1210" d="M74 971q0 131 66 241t177 172t242 62h488q67 0 67 -68v-41q0 -67 -67 -67h-334v-1305q0 -67 -68 -67h-18q-68 0 -68 67v529q-130 0 -241.5 62.5t-177.5 173t-66 241.5zM840 -35v1120q0 68 67 68h19q32 0 49.5 -18t17.5 -50v-1120q0 -67 -67 -67h-19q-67 0 -67 67z" />
<glyph unicode="&#xb7;" horiz-adv-x="473" d="M133 553v82q0 67 66 67h73q68 0 68 -67v-82q0 -68 -68 -68h-73q-66 0 -66 68z" />
<glyph unicode="&#xb8;" horiz-adv-x="1021" d="M356 -365q0 28 10 45t27 17q8 0 24 -3t29 -3q39 0 64 16t25 49q0 55 -97 66q-21 2 -30 17t-2 40l38 160h109l-29 -141q66 -8 107 -47t41 -103q0 -88 -60.5 -130t-148.5 -42q-107 0 -107 59z" />
<glyph unicode="&#xb9;" horiz-adv-x="620" d="M61 930v8q0 63 60 63h131v510l4 54h-4q-6 -14 -35 -41l-43 -43q-34 -27 -65 4l-17 18q-42 44 6 92l133 131q35 35 84 35h23q32 0 50 -17.5t18 -49.5v-693h120q68 0 68 -63v-8q0 -64 -68 -64h-397q-68 0 -68 64z" />
<glyph unicode="&#xba;" horiz-adv-x="927" d="M113 1130q0 145 102 241.5t248 96.5q147 0 248.5 -96.5t101.5 -241.5q0 -149 -101 -246.5t-249 -97.5q-147 0 -248.5 97.5t-101.5 246.5zM145 598v8q0 53 68 53h504q67 0 67 -53v-8q0 -55 -67 -55h-504q-68 0 -68 55zM262 1130q0 -92 58 -151t143 -59t143 59t58 151 q0 90 -58.5 148.5t-142.5 58.5t-142.5 -58.5t-58.5 -148.5z" />
<glyph unicode="&#xbb;" horiz-adv-x="1071" d="M110 975.5q10 23.5 50 23.5h49q50 0 82 -38l266 -336q41 -47 0 -95l-266 -333q-33 -39 -82 -39h-43q-43 0 -54 24t15 58l268 338l-268 340q-27 34 -17 57.5zM522.5 975.5q9.5 23.5 50.5 23.5h50q50 0 82 -38l266 -336q38 -47 0 -95l-266 -333q-33 -39 -82 -39h-43 q-43 0 -54 24t15 58l268 338l-268 340q-28 34 -18.5 57.5z" />
<glyph unicode="&#xbc;" horiz-adv-x="1927" d="M100 616v9q0 63 60 63h131v510l4 53h-4q-6 -14 -35 -41l-43 -43q-15 -12 -33 -11.5t-33 15.5l-16 19q-42 44 6 92l133 131q35 35 84 35h23q32 0 49.5 -18t17.5 -50v-692h121q68 0 68 -63v-9q0 -63 -68 -63h-397q-68 0 -68 63zM546 22.5q-10 22.5 7 57.5l627 1317 q22 49 80 49h22q34 0 44 -21.5t-7 -58.5l-625 -1315q-23 -51 -80 -51h-24q-34 0 -44 22.5zM1149 270v19q0 34 25 69l356 494q28 43 82 43h45q67 0 67 -68v-473h72q59 0 59 -63v-8q0 -64 -59 -64h-72v-151q0 -68 -67 -68h-17q-67 0 -67 68v151h-356q-68 0 -68 51zM1315 354 h258v252q0 24 2 53.5t4 47.5l2 18h-4q-28 -55 -61 -98l-201 -269v-4z" />
<glyph unicode="&#xbd;" horiz-adv-x="1896" d="M96 616v9q0 63 60 63h131v510l4 53h-4q-6 -14 -35 -41l-43 -43q-15 -12 -33 -11.5t-33 15.5l-16 19q-42 44 6 92l133 131q35 35 84 35h23q32 0 49.5 -18t17.5 -50v-692h121q68 0 68 -63v-9q0 -63 -68 -63h-397q-68 0 -68 63zM544 22.5q-10 22.5 7 57.5l627 1317 q22 49 79 49h23q34 0 44 -21.5t-7 -58.5l-625 -1315q-23 -51 -80 -51h-24q-34 0 -44 22.5zM1204 74q0 71 24 130t62 99.5t84.5 75t93 63.5t84.5 57.5t62 64.5t24 77q0 57 -41.5 95t-105.5 38q-65 0 -127 -53q-28 -20 -47.5 -21.5t-44.5 19.5l-8 6q-51 48 -4 92 q108 98 239 98q128 0 211.5 -74t83.5 -194q0 -61 -22.5 -112t-59 -87t-80.5 -67t-89 -58t-82 -54t-62 -61t-27 -73h369q67 0 67 -63v-9q0 -63 -67 -63h-469q-68 0 -68 74z" />
<glyph unicode="&#xbe;" horiz-adv-x="1957" d="M104 713l9 10q19 25 41 26.5t49 -14.5q70 -61 162 -61q68 0 117.5 44.5t49.5 110.5t-52.5 106t-121.5 40h-26q-52 0 -66 39q-15 40 19 82l145 168q9 10 21.5 22.5t20.5 19.5l9 7v4q-38 -6 -73 -6h-224q-67 0 -67 65v8q0 64 67 64h422q68 0 68 -49v-10q0 -37 -33 -76 l-190 -221q100 -15 168.5 -81.5t68.5 -181.5q0 -122 -89.5 -209.5t-227.5 -87.5q-153 0 -256 93q-50 36 -11 88zM577 22.5q-10 22.5 7 57.5l626 1317q22 49 80 49h23q34 0 44 -21.5t-7 -58.5l-625 -1315q-23 -51 -80 -51h-24q-34 0 -44 22.5zM1182 270v19q0 36 24 69 l357 494q28 43 82 43h45q67 0 67 -68v-473h72q59 0 59 -63v-8q0 -64 -59 -64h-72v-151q0 -68 -67 -68h-17q-67 0 -67 68v151h-357q-67 0 -67 51zM1348 354h258v252q0 24 2 53.5t4 47.5l2 18h-4q-29 -55 -62 -98l-200 -269v-4z" />
<glyph unicode="&#xbf;" horiz-adv-x="942" d="M121 -63q0 67 19 124t49.5 98.5t68 79t75.5 71t69.5 67.5t53.5 77t25 91l2 43q9 51 66 51h59q32 0 50 -18t18 -50v-41q0 -58 -19 -109.5t-50 -89.5t-68 -73.5t-74 -69t-68 -67.5t-50 -78t-19 -92q0 -87 66.5 -145t168.5 -58q92 0 178 51q65 31 97 -18l26 -37 q39 -58 -12 -92q-139 -90 -303 -90q-179 0 -303.5 104.5t-124.5 270.5zM475 903v66q0 67 68 67h71q68 0 68 -67v-66q0 -67 -68 -67h-71q-68 0 -68 67z" />
<glyph unicode="&#xc0;" horiz-adv-x="1271" d="M37 78l475 1313q17 55 76 55h98q59 0 76 -55l475 -1313q12 -35 -3 -56.5t-52 -21.5h-70q-58 0 -76 55l-129 361h-545l-126 -361q-15 -55 -74 -55h-70q-38 0 -52.5 21t-2.5 57zM407 1782q10 24 52 24h61q54 0 80 -47l80 -139q18 -29 9.5 -51.5t-42.5 -22.5h-41 q-49 0 -82 41l-100 137q-27 34 -17 58zM416 584h438l-160 458q-11 33 -25 84t-22 86l-8 35h-4q-32 -131 -57 -205z" />
<glyph unicode="&#xc1;" horiz-adv-x="1271" d="M37 78l475 1313q17 55 76 55h98q59 0 76 -55l475 -1313q12 -35 -3 -56.5t-52 -21.5h-70q-58 0 -76 55l-129 361h-545l-126 -361q-15 -55 -74 -55h-70q-38 0 -52.5 21t-2.5 57zM416 584h438l-160 458q-11 33 -25 84t-22 86l-8 35h-4q-32 -131 -57 -205zM581.5 1568.5 q-12.5 22.5 6.5 53.5l82 137q26 47 80 47h59q42 0 53 -24t-16 -58l-101 -137q-33 -41 -81 -41h-35q-35 0 -47.5 22.5z" />
<glyph unicode="&#xc2;" horiz-adv-x="1271" d="M37 78l475 1313q17 55 76 55h98q59 0 76 -55l475 -1313q12 -35 -3 -56.5t-52 -21.5h-70q-58 0 -76 55l-129 361h-545l-126 -361q-15 -55 -74 -55h-70q-38 0 -52.5 21t-2.5 57zM394 1569.5q-9 23.5 14 58.5l94 133q31 45 84 45h100q55 0 82 -45l96 -133q23 -35 14 -58.5 t-44 -23.5h-46q-27 0 -41 9.5t-30 35.5l-80 119h-4l-80 -119q-14 -26 -29 -35.5t-43 -9.5h-41q-37 0 -46 23.5zM416 584h438l-160 458q-11 33 -25 84t-22 86l-8 35h-4q-32 -131 -57 -205z" />
<glyph unicode="&#xc3;" horiz-adv-x="1271" d="M37 78l475 1313q17 55 76 55h98q59 0 76 -55l475 -1313q12 -35 -3 -56.5t-52 -21.5h-70q-58 0 -76 55l-129 361h-545l-126 -361q-15 -55 -74 -55h-70q-38 0 -52.5 21t-2.5 57zM297 1614q0 84 53.5 139t138.5 55q41 0 75.5 -14.5t58.5 -35t45.5 -40.5t45.5 -34.5t48 -14.5 q35 0 54.5 26.5t21.5 65.5q2 19 18 30t43 11h16q60 0 60 -57q0 -92 -52.5 -147.5t-140.5 -55.5q-41 0 -75.5 14.5t-58.5 35t-45 40.5t-45 34.5t-48 14.5q-36 0 -56 -26.5t-22 -65.5q-7 -41 -59 -41h-17q-59 0 -59 66zM416 584h438l-160 458q-11 33 -25 84t-22 86l-8 35h-4 q-32 -131 -57 -205z" />
<glyph unicode="&#xc4;" horiz-adv-x="1271" d="M37 78l475 1313q17 55 76 55h98q59 0 76 -55l475 -1313q12 -35 -3 -56.5t-52 -21.5h-70q-58 0 -76 55l-129 361h-545l-126 -361q-15 -55 -74 -55h-70q-38 0 -52.5 21t-2.5 57zM383 1667v72q0 67 68 67h28q68 0 68 -67v-72q0 -68 -68 -68h-28q-68 0 -68 68zM416 584h438 l-160 458q-11 33 -25 84t-22 86l-8 35h-4q-32 -131 -57 -205zM725 1667v72q0 67 68 67h28q68 0 68 -67v-72q0 -68 -68 -68h-28q-68 0 -68 68z" />
<glyph unicode="&#xc5;" horiz-adv-x="1271" d="M37 78l475 1313q17 55 76 55h98q59 0 76 -55l475 -1313q12 -35 -3 -56.5t-52 -21.5h-70q-58 0 -76 55l-129 361h-545l-126 -361q-15 -55 -74 -55h-70q-38 0 -52.5 21t-2.5 57zM416 584h438l-160 458q-11 33 -25 84t-22 86l-8 35h-4q-32 -131 -57 -205zM463 1673 q0 70 51 112t123 42q71 0 122.5 -42.5t51.5 -111.5q0 -68 -51.5 -109.5t-122.5 -41.5q-72 0 -123 41.5t-51 109.5zM569 1673q0 -29 18.5 -48t49.5 -19q29 0 48.5 19t19.5 48q0 32 -19 52t-49 20q-31 0 -49.5 -20t-18.5 -52z" />
<glyph unicode="&#xc6;" horiz-adv-x="1759" d="M26.5 22q-14.5 22 0.5 56l542 1317q19 51 78 51h934q68 0 68 -68v-41q0 -67 -68 -67h-571v-453h452q68 0 68 -67v-41q0 -68 -68 -68h-452v-465h606q67 0 67 -67v-41q0 -68 -67 -68h-739q-68 0 -68 68v575h-348l-236 -590q-20 -53 -78 -53h-69q-37 0 -51.5 22zM528 811 h281v459h-96z" />
<glyph unicode="&#xc7;" horiz-adv-x="1452" d="M96 731q0 208 93 376.5t261.5 265.5t380.5 97q278 0 480 -149q48 -36 12 -94l-27 -41q-36 -54 -94 -17q-171 115 -362 115q-123 0 -225 -43t-169 -118t-104 -175.5t-37 -214.5q0 -115 37.5 -218.5t105 -182t170 -124.5t224.5 -46q212 0 393 141q55 42 94 -8l31 -41 q39 -51 -10 -94q-215 -176 -486 -185l-16 -77q66 -8 106.5 -47t40.5 -103q0 -88 -60.5 -130t-148.5 -42q-106 0 -106 59q0 28 10 45t27 17q8 0 24 -3t29 -3q39 0 63.5 16t24.5 49q0 56 -96 66q-21 2 -30.5 17t-2.5 40l25 101q-197 18 -347.5 121.5t-230.5 267.5t-80 362z " />
<glyph unicode="&#xc8;" horiz-adv-x="1136" d="M184 68v1310q0 68 68 68h704q68 0 68 -68v-41q0 -67 -68 -67h-571v-453h453q67 0 67 -67v-41q0 -68 -67 -68h-453v-465h606q68 0 68 -67v-41q0 -68 -68 -68h-739q-68 0 -68 68zM397 1782q10 24 52 24h61q54 0 80 -47l80 -139q18 -29 9.5 -51.5t-42.5 -22.5h-41 q-49 0 -82 41l-100 137q-27 34 -17 58z" />
<glyph unicode="&#xc9;" horiz-adv-x="1136" d="M184 68v1310q0 68 68 68h704q68 0 68 -68v-41q0 -67 -68 -67h-571v-453h453q67 0 67 -67v-41q0 -68 -67 -68h-453v-465h606q68 0 68 -67v-41q0 -68 -68 -68h-739q-68 0 -68 68zM571 1568.5q-12 22.5 7 53.5l81 137q26 47 80 47h60q42 0 53 -24t-16 -58l-101 -137 q-33 -41 -82 -41h-35q-35 0 -47 22.5z" />
<glyph unicode="&#xca;" horiz-adv-x="1136" d="M184 68v1310q0 68 68 68h704q68 0 68 -68v-41q0 -67 -68 -67h-571v-453h453q67 0 67 -67v-41q0 -68 -67 -68h-453v-465h606q68 0 68 -67v-41q0 -68 -68 -68h-739q-68 0 -68 68zM383.5 1569.5q-9.5 23.5 13.5 58.5l95 133q31 45 83 45h101q55 0 82 -45l96 -133 q23 -35 14 -58.5t-45 -23.5h-45q-27 0 -41 9.5t-30 35.5l-80 119h-4l-80 -119q-14 -26 -29 -35.5t-43 -9.5h-41q-37 0 -46.5 23.5z" />
<glyph unicode="&#xcb;" horiz-adv-x="1136" d="M184 68v1310q0 68 68 68h704q68 0 68 -68v-41q0 -67 -68 -67h-571v-453h453q67 0 67 -67v-41q0 -68 -67 -68h-453v-465h606q68 0 68 -67v-41q0 -68 -68 -68h-739q-68 0 -68 68zM373 1667v72q0 67 67 67h29q68 0 68 -67v-72q0 -68 -68 -68h-29q-67 0 -67 68zM715 1667v72 q0 67 67 67h29q68 0 68 -67v-72q0 -68 -68 -68h-29q-67 0 -67 68z" />
<glyph unicode="&#xcc;" horiz-adv-x="569" d="M59 1782q10 24 52 24h61q54 0 80 -47l80 -139q18 -29 9.5 -51.5t-42.5 -22.5h-41q-49 0 -82 41l-100 137q-27 34 -17 58zM184 68v1310q0 68 68 68h65q68 0 68 -68v-1310q0 -68 -68 -68h-65q-68 0 -68 68z" />
<glyph unicode="&#xcd;" horiz-adv-x="569" d="M184 68v1310q0 68 68 68h65q68 0 68 -68v-1310q0 -68 -68 -68h-65q-68 0 -68 68zM233.5 1568.5q-12.5 22.5 6.5 53.5l82 137q26 47 79 47h60q42 0 53 -24t-16 -58l-101 -137q-33 -41 -82 -41h-34q-35 0 -47.5 22.5z" />
<glyph unicode="&#xce;" horiz-adv-x="569" d="M45.5 1569.5q-9.5 23.5 13.5 58.5l95 133q31 45 84 45h100q55 0 82 -45l96 -133q23 -35 14 -58.5t-45 -23.5h-45q-27 0 -41 9.5t-30 35.5l-80 119h-4l-80 -119q-14 -26 -29 -35.5t-43 -9.5h-41q-37 0 -46.5 23.5zM184 68v1310q0 68 68 68h65q68 0 68 -68v-1310 q0 -68 -68 -68h-65q-68 0 -68 68z" />
<glyph unicode="&#xcf;" horiz-adv-x="569" d="M35 1667v72q0 67 67 67h29q68 0 68 -67v-72q0 -68 -68 -68h-29q-67 0 -67 68zM184 68v1310q0 68 68 68h65q68 0 68 -68v-1310q0 -68 -68 -68h-65q-68 0 -68 68zM377 1667v72q0 67 67 67h29q68 0 68 -67v-72q0 -68 -68 -68h-29q-67 0 -67 68z" />
<glyph unicode="&#xd0;" horiz-adv-x="1495" d="M66 707v32q0 68 45 68h75v571q0 68 68 68h412q334 0 532.5 -191t198.5 -530q0 -340 -198.5 -532.5t-532.5 -192.5h-412q-68 0 -68 68v571h-53q-67 0 -67 68zM387 176h264q249 0 393 143t144 406q0 261 -144.5 403t-392.5 142h-264v-463h240q67 0 67 -68v-32 q0 -68 -65 -68h-242v-463z" />
<glyph unicode="&#xd1;" horiz-adv-x="1523" d="M184 68v1310q0 68 68 68h78q55 0 82 -45l616 -895q23 -35 52.5 -87t47.5 -87l19 -35h4q-12 129 -12 209v872q0 68 67 68h66q67 0 67 -68v-1310q0 -68 -67 -68h-78q-55 0 -80 45l-618 893q-23 36 -52.5 88.5t-47.5 87.5l-19 35h-4q12 -129 12 -211v-870q0 -68 -68 -68h-65 q-68 0 -68 68zM424 1614q0 84 53.5 139t138.5 55q41 0 75.5 -14.5t58.5 -35t45.5 -40.5t45.5 -34.5t48 -14.5q35 0 54.5 26.5t21.5 65.5q2 19 18 30t43 11h16q60 0 60 -57q0 -92 -52.5 -147.5t-140.5 -55.5q-41 0 -75.5 14.5t-58.5 35t-45 40.5t-45 34.5t-48 14.5 q-36 0 -56 -26.5t-22 -65.5q-7 -41 -59 -41h-17q-59 0 -59 66z" />
<glyph unicode="&#xd2;" horiz-adv-x="1669" d="M92 733q0 154 56 290.5t154 234.5t237 155t297 57t296.5 -57t235.5 -155t153 -234.5t56 -290.5q0 -158 -56 -298t-153 -241t-235.5 -160t-296.5 -59t-297 59t-236.5 160t-154 241t-56.5 298zM301 733q0 -120 40.5 -225.5t111.5 -181.5t170.5 -120t212.5 -44 q229 0 380.5 163.5t151.5 407.5q0 236 -151.5 393.5t-380.5 157.5q-151 0 -274 -72t-192 -198t-69 -281zM605.5 1782q9.5 24 51.5 24h62q54 0 80 -47l80 -139q18 -29 9.5 -51.5t-42.5 -22.5h-41q-49 0 -82 41l-100 137q-27 34 -17.5 58z" />
<glyph unicode="&#xd3;" horiz-adv-x="1669" d="M92 733q0 154 56 290.5t154 234.5t237 155t297 57t296.5 -57t235.5 -155t153 -234.5t56 -290.5q0 -158 -56 -298t-153 -241t-235.5 -160t-296.5 -59t-297 59t-236.5 160t-154 241t-56.5 298zM301 733q0 -120 40.5 -225.5t111.5 -181.5t170.5 -120t212.5 -44 q229 0 380.5 163.5t151.5 407.5q0 236 -151.5 393.5t-380.5 157.5q-151 0 -274 -72t-192 -198t-69 -281zM779.5 1568.5q-12.5 22.5 6.5 53.5l82 137q26 47 80 47h60q42 0 52.5 -24t-16.5 -58l-100 -137q-33 -41 -82 -41h-35q-35 0 -47.5 22.5z" />
<glyph unicode="&#xd4;" horiz-adv-x="1669" d="M92 733q0 154 56 290.5t154 234.5t237 155t297 57t296.5 -57t235.5 -155t153 -234.5t56 -290.5q0 -158 -56 -298t-153 -241t-235.5 -160t-296.5 -59t-297 59t-236.5 160t-154 241t-56.5 298zM301 733q0 -120 40.5 -225.5t111.5 -181.5t170.5 -120t212.5 -44 q229 0 380.5 163.5t151.5 407.5q0 236 -151.5 393.5t-380.5 157.5q-151 0 -274 -72t-192 -198t-69 -281zM592.5 1569.5q-9.5 23.5 13.5 58.5l94 133q31 45 84 45h101q55 0 82 -45l96 -133q23 -35 14 -58.5t-45 -23.5h-45q-27 0 -41.5 9.5t-30.5 35.5l-79 119h-5l-79 -119 q-14 -26 -29 -35.5t-43 -9.5h-41q-37 0 -46.5 23.5z" />
<glyph unicode="&#xd5;" horiz-adv-x="1669" d="M92 733q0 154 56 290.5t154 234.5t237 155t297 57t296.5 -57t235.5 -155t153 -234.5t56 -290.5q0 -158 -56 -298t-153 -241t-235.5 -160t-296.5 -59t-297 59t-236.5 160t-154 241t-56.5 298zM301 733q0 -120 40.5 -225.5t111.5 -181.5t170.5 -120t212.5 -44 q229 0 380.5 163.5t151.5 407.5q0 236 -151.5 393.5t-380.5 157.5q-151 0 -274 -72t-192 -198t-69 -281zM496 1614q0 84 53.5 139t138.5 55q41 0 75.5 -14.5t58.5 -35t45.5 -40.5t45.5 -34.5t48 -14.5q35 0 54 26.5t21 65.5q2 19 18 30t44 11h16q60 0 60 -57 q0 -92 -52.5 -147.5t-140.5 -55.5q-41 0 -75.5 14.5t-58.5 35t-45 40.5t-45 34.5t-48 14.5q-36 0 -56 -26.5t-22 -65.5q-7 -41 -60 -41h-16q-59 0 -59 66z" />
<glyph unicode="&#xd6;" horiz-adv-x="1669" d="M92 733q0 154 56 290.5t154 234.5t237 155t297 57t296.5 -57t235.5 -155t153 -234.5t56 -290.5q0 -158 -56 -298t-153 -241t-235.5 -160t-296.5 -59t-297 59t-236.5 160t-154 241t-56.5 298zM301 733q0 -120 40.5 -225.5t111.5 -181.5t170.5 -120t212.5 -44 q229 0 380.5 163.5t151.5 407.5q0 236 -151.5 393.5t-380.5 157.5q-151 0 -274 -72t-192 -198t-69 -281zM582 1667v72q0 67 67 67h29q67 0 67 -67v-72q0 -68 -67 -68h-29q-67 0 -67 68zM924 1667v72q0 67 67 67h29q67 0 67 -67v-72q0 -68 -67 -68h-29q-67 0 -67 68z" />
<glyph unicode="&#xd7;" d="M139 162l377 422l-377 422q-44 51 2 94l19 18q49 49 94 -2l373 -414l372 414q45 51 97 2l16 -18q46 -43 2 -94l-379 -422l379 -422q44 -51 -2 -94l-16 -19q-52 -49 -97 2l-372 414l-373 -414q-45 -51 -94 -2l-19 19q-46 43 -2 94z" />
<glyph unicode="&#xd8;" horiz-adv-x="1667" d="M92 731q0 154 58 291.5t157 235.5t237 155t292 57q206 0 378 -102l54 78q42 54 92 18q47 -35 20 -75l-63 -89q122 -103 191 -250t69 -319q0 -208 -97.5 -381.5t-267.5 -274t-376 -100.5q-218 0 -392 111l-59 -84q-41 -53 -90 -18t-19 79l68 95q-119 106 -185.5 255 t-66.5 318zM301 731q0 -119 43.5 -225t118.5 -182l637 886q-120 74 -264 74q-146 0 -268.5 -71.5t-194.5 -199t-72 -282.5zM557 244q124 -82 277 -82q110 0 208.5 43.5t170 119t113.5 181.5t42 225q0 122 -45 227t-125 179z" />
<glyph unicode="&#xd9;" horiz-adv-x="1468" d="M166 512v866q0 68 67 68h68q66 0 66 -68v-864q0 -164 99.5 -258t266.5 -94q168 0 267.5 94.5t99.5 259.5v862q0 68 67 68h68q68 0 68 -68v-866q0 -241 -157 -389t-411 -148q-255 0 -412 148t-157 389zM505 1782q10 24 52 24h61q54 0 80 -47l80 -139q18 -29 9.5 -51.5 t-42.5 -22.5h-40q-49 0 -82 41l-101 137q-27 34 -17 58z" />
<glyph unicode="&#xda;" horiz-adv-x="1468" d="M166 512v866q0 68 67 68h68q66 0 66 -68v-864q0 -164 99.5 -258t266.5 -94q168 0 267.5 94.5t99.5 259.5v862q0 68 67 68h68q68 0 68 -68v-866q0 -241 -157 -389t-411 -148q-255 0 -412 148t-157 389zM677.5 1568.5q-12.5 22.5 6.5 53.5l82 137q26 47 80 47h59 q42 0 53 -24t-16 -58l-100 -137q-33 -41 -82 -41h-35q-35 0 -47.5 22.5z" />
<glyph unicode="&#xdb;" horiz-adv-x="1468" d="M166 512v866q0 68 67 68h68q66 0 66 -68v-864q0 -164 99.5 -258t266.5 -94q168 0 267.5 94.5t99.5 259.5v862q0 68 67 68h68q68 0 68 -68v-866q0 -241 -157 -389t-411 -148q-255 0 -412 148t-157 389zM490.5 1569.5q-9.5 23.5 13.5 58.5l94 133q31 45 84 45h100 q55 0 82 -45l97 -133q23 -35 14 -58.5t-45 -23.5h-45q-27 0 -41.5 9.5t-30.5 35.5l-80 119h-4l-80 -119q-14 -26 -28.5 -35.5t-42.5 -9.5h-41q-37 0 -46.5 23.5z" />
<glyph unicode="&#xdc;" horiz-adv-x="1468" d="M166 512v866q0 68 67 68h68q66 0 66 -68v-864q0 -164 99.5 -258t266.5 -94q168 0 267.5 94.5t99.5 259.5v862q0 68 67 68h68q68 0 68 -68v-866q0 -241 -157 -389t-411 -148q-255 0 -412 148t-157 389zM481 1667v72q0 67 68 67h29q67 0 67 -67v-72q0 -68 -67 -68h-29 q-68 0 -68 68zM823 1667v72q0 67 68 67h29q67 0 67 -67v-72q0 -68 -67 -68h-29q-68 0 -68 68z" />
<glyph unicode="&#xdd;" horiz-adv-x="1161" d="M34.5 1423q13.5 23 53.5 23h82q55 0 78 -47l244 -428q19 -36 41 -82t35 -73l12 -28h4q43 101 88 183l241 428q23 47 78 47h82q40 0 53.5 -23t-6.5 -57l-438 -754v-544q0 -68 -68 -68h-67q-68 0 -68 68v544l-438 754q-20 34 -6.5 57zM525.5 1568.5q-12.5 22.5 6.5 53.5 l82 137q26 47 80 47h60q42 0 53 -24t-16 -58l-101 -137q-33 -41 -82 -41h-35q-35 0 -47.5 22.5z" />
<glyph unicode="&#xde;" horiz-adv-x="1224" d="M184 68v1310q0 68 68 68h65q68 0 68 -66v-180h328q200 0 326 -124t126 -328q0 -205 -127 -332t-327 -127h-326v-221q0 -68 -68 -68h-65q-68 0 -68 68zM385 465h295q130 0 205.5 76t75.5 207q0 130 -74.5 203t-204.5 73h-297v-559z" />
<glyph unicode="&#xdf;" horiz-adv-x="1191" d="M145 68v1017q0 91 37.5 166t100.5 121.5t141.5 72t163.5 25.5q168 0 278.5 -95.5t110.5 -233.5q0 -47 -15 -89t-38 -71t-49.5 -59t-49.5 -53t-38 -52t-15 -57q0 -30 27 -61.5t67.5 -58t88 -63t88 -73.5t67.5 -91.5t27 -115.5q0 -100 -50.5 -172.5t-128 -105.5t-170.5 -33 q-127 0 -237 41q-53 14 -53 75v39q0 74 63 58q98 -41 203 -41q74 0 123 37t49 110q0 45 -38 88t-92 79.5t-107.5 75.5t-91.5 92.5t-38 113.5q0 47 21.5 90t51.5 76.5t60.5 66t52 72t21.5 80.5q0 65 -52 112t-144 47q-97 0 -167.5 -59t-70.5 -168v-1003q0 -68 -66 -68h-63 q-68 0 -68 68z" />
<glyph unicode="&#xe0;" horiz-adv-x="1058" d="M59 283q0 67 23.5 121t61 90.5t92 63.5t108 42t118 24.5t114 12t102.5 2.5h53v27q0 227 -225 227q-119 0 -234 -66q-59 -27 -92 25l-16 29q-32 63 22 92q153 88 336 88q194 0 301 -105t107 -301v-587q0 -68 -68 -68h-51q-68 0 -68 68v61q0 17 1.5 33t3.5 24l2 7h-5 q-4 -9 -12 -23.5t-37 -52t-64.5 -66.5t-95.5 -52.5t-128 -23.5q-144 0 -246.5 84t-102.5 224zM260 299q0 -67 51.5 -116.5t141.5 -49.5q83 0 149 51t98.5 125.5t32.5 153.5v45h-53q-420 0 -420 -209zM300 1424q10 24 52 24h62q54 0 80 -47l79 -139q18 -29 10 -51.5 t-42 -22.5h-41q-49 0 -82 41l-101 137q-27 34 -17 58z" />
<glyph unicode="&#xe1;" horiz-adv-x="1058" d="M59 283q0 67 23.5 121t61 90.5t92 63.5t108 42t118 24.5t114 12t102.5 2.5h53v27q0 227 -225 227q-119 0 -234 -66q-59 -27 -92 25l-16 29q-32 63 22 92q153 88 336 88q194 0 301 -105t107 -301v-587q0 -68 -68 -68h-51q-68 0 -68 68v61q0 17 1.5 33t3.5 24l2 7h-5 q-4 -9 -12 -23.5t-37 -52t-64.5 -66.5t-95.5 -52.5t-128 -23.5q-144 0 -246.5 84t-102.5 224zM260 299q0 -67 51.5 -116.5t141.5 -49.5q83 0 149 51t98.5 125.5t32.5 153.5v45h-53q-420 0 -420 -209zM468.5 1210.5q-12.5 22.5 6.5 53.5l82 137q26 47 80 47h59q42 0 53 -24 t-16 -58l-100 -137q-33 -41 -82 -41h-35q-35 0 -47.5 22.5z" />
<glyph unicode="&#xe2;" horiz-adv-x="1058" d="M59 283q0 67 23.5 121t61 90.5t92 63.5t108 42t118 24.5t114 12t102.5 2.5h53v27q0 227 -225 227q-119 0 -234 -66q-59 -27 -92 25l-16 29q-32 63 22 92q153 88 336 88q194 0 301 -105t107 -301v-587q0 -68 -68 -68h-51q-68 0 -68 68v61q0 17 1.5 33t3.5 24l2 7h-5 q-4 -9 -12 -23.5t-37 -52t-64.5 -66.5t-95.5 -52.5t-128 -23.5q-144 0 -246.5 84t-102.5 224zM260 299q0 -67 51.5 -116.5t141.5 -49.5q83 0 149 51t98.5 125.5t32.5 153.5v45h-53q-420 0 -420 -209zM283.5 1211.5q-9.5 23.5 13.5 58.5l94 133q31 45 84 45h100q55 0 82 -45 l97 -133q23 -35 14 -58.5t-45 -23.5h-45q-27 0 -41.5 9.5t-30.5 35.5l-80 119h-4l-80 -119q-14 -26 -28.5 -35.5t-42.5 -9.5h-41q-37 0 -46.5 23.5z" />
<glyph unicode="&#xe3;" horiz-adv-x="1058" d="M59 283q0 67 23.5 121t61 90.5t92 63.5t108 42t118 24.5t114 12t102.5 2.5h53v27q0 227 -225 227q-119 0 -234 -66q-59 -27 -92 25l-16 29q-32 63 22 92q153 88 336 88q194 0 301 -105t107 -301v-587q0 -68 -68 -68h-51q-68 0 -68 68v61q0 17 1.5 33t3.5 24l2 7h-5 q-4 -9 -12 -23.5t-37 -52t-64.5 -66.5t-95.5 -52.5t-128 -23.5q-144 0 -246.5 84t-102.5 224zM186 1255q0 84 54 139.5t139 55.5q41 0 75.5 -14.5t58.5 -35t45 -40.5t45 -34.5t48 -14.5q35 0 54.5 26.5t21.5 65.5q2 19 18 30t43 11h17q59 0 59 -58q0 -92 -52 -147t-140 -55 q-41 0 -75.5 14.5t-58.5 35t-45.5 40.5t-45.5 34.5t-48 14.5q-36 0 -55.5 -26t-21.5 -66q-7 -41 -60 -41h-16q-60 0 -60 65zM260 299q0 -67 51.5 -116.5t141.5 -49.5q83 0 149 51t98.5 125.5t32.5 153.5v45h-53q-420 0 -420 -209z" />
<glyph unicode="&#xe4;" horiz-adv-x="1058" d="M59 283q0 67 23.5 121t61 90.5t92 63.5t108 42t118 24.5t114 12t102.5 2.5h53v27q0 227 -225 227q-119 0 -234 -66q-59 -27 -92 25l-16 29q-32 63 22 92q153 88 336 88q194 0 301 -105t107 -301v-587q0 -68 -68 -68h-51q-68 0 -68 68v61q0 17 1.5 33t3.5 24l2 7h-5 q-4 -9 -12 -23.5t-37 -52t-64.5 -66.5t-95.5 -52.5t-128 -23.5q-144 0 -246.5 84t-102.5 224zM260 299q0 -67 51.5 -116.5t141.5 -49.5q83 0 149 51t98.5 125.5t32.5 153.5v45h-53q-420 0 -420 -209zM272 1309v71q0 68 68 68h29q67 0 67 -68v-71q0 -68 -67 -68h-29 q-68 0 -68 68zM614 1309v71q0 68 68 68h29q67 0 67 -68v-71q0 -68 -67 -68h-29q-68 0 -68 68z" />
<glyph unicode="&#xe5;" horiz-adv-x="1058" d="M59 283q0 67 23.5 121t61 90.5t92 63.5t108 42t118 24.5t114 12t102.5 2.5h53v27q0 227 -225 227q-119 0 -234 -66q-59 -27 -92 25l-16 29q-32 63 22 92q153 88 336 88q194 0 301 -105t107 -301v-587q0 -68 -68 -68h-51q-68 0 -68 68v61q0 17 1.5 33t3.5 24l2 7h-5 q-4 -9 -12 -23.5t-37 -52t-64.5 -66.5t-95.5 -52.5t-128 -23.5q-144 0 -246.5 84t-102.5 224zM260 299q0 -67 51.5 -116.5t141.5 -49.5q83 0 149 51t98.5 125.5t32.5 153.5v45h-53q-420 0 -420 -209zM352 1315q0 69 51 111t123 42q71 0 122.5 -42t51.5 -111 q0 -68 -51.5 -110t-122.5 -42q-72 0 -123 42t-51 110zM459 1315q0 -30 18.5 -49t48.5 -19q29 0 48.5 19.5t19.5 48.5q0 32 -19 51.5t-49 19.5q-31 0 -49 -19.5t-18 -51.5z" />
<glyph unicode="&#xe6;" horiz-adv-x="1746" d="M63 291q0 68 24 122.5t60.5 89.5t93 61t108 39t118.5 21t112.5 9.5t102.5 1.5h51v31q0 227 -233 227q-113 0 -228 -66q-58 -30 -92 25l-16 29q-30 63 24 92q148 88 326 88q260 0 344 -182h4q123 182 367 182q209 0 326.5 -135.5t117.5 -354.5q0 -27 -19.5 -48t-49.5 -21 h-680q9 -169 105 -262t241 -93q134 0 248 80q63 37 92 -20l16 -31q37 -59 -18 -90q-157 -111 -351 -111q-154 0 -268.5 68.5t-175.5 192.5h-4q-7 -21 -21.5 -48t-47 -66.5t-74 -70.5t-107 -53.5t-141.5 -22.5q-149 0 -252 85.5t-103 230.5zM264 301q0 -69 52 -117.5 t145 -48.5q81 0 145.5 51.5t96.5 126.5t32 154v35h-96q-375 0 -375 -201zM932 635h541q-4 126 -75.5 197t-170.5 71q-116 0 -194 -70t-101 -198z" />
<glyph unicode="&#xe7;" horiz-adv-x="1093" d="M78 518q0 232 156 387.5t397 155.5q200 0 342 -111q53 -35 12 -92l-20 -31q-34 -51 -93 -16q-108 78 -231 78q-157 0 -258.5 -104.5t-101.5 -264.5t102.5 -266.5t261.5 -106.5q138 0 264 95q56 38 92 -19l17 -30q32 -56 -19 -91q-147 -120 -346 -127l-14 -77 q66 -8 106.5 -47t40.5 -103q0 -88 -60 -130t-148 -42q-107 0 -107 59q0 28 10 45t27 17q8 0 24 -3t29 -3q39 0 63.5 16t24.5 49q0 56 -96 66q-21 2 -30.5 17t-2.5 40l25 103q-209 28 -338 176t-129 360z" />
<glyph unicode="&#xe8;" horiz-adv-x="1116" d="M78 518q0 244 146.5 393.5t371.5 149.5q211 0 328.5 -136t117.5 -358q0 -28 -19.5 -48.5t-49.5 -20.5h-692q9 -163 111.5 -257t246.5 -94q138 0 248 82q61 31 92 -22l18 -31q16 -26 11 -50.5t-31 -39.5q-157 -111 -350 -111q-160 0 -286 71.5t-194.5 195t-68.5 276.5z M289 629h555q-4 132 -74.5 204t-177.5 72q-116 0 -199 -73.5t-104 -202.5zM370 1424q10 24 52 24h61q54 0 80 -47l80 -139q18 -29 9.5 -51.5t-42.5 -22.5h-41q-49 0 -82 41l-100 137q-27 34 -17 58z" />
<glyph unicode="&#xe9;" horiz-adv-x="1116" d="M78 518q0 244 146.5 393.5t371.5 149.5q211 0 328.5 -136t117.5 -358q0 -28 -19.5 -48.5t-49.5 -20.5h-692q9 -163 111.5 -257t246.5 -94q138 0 248 82q61 31 92 -22l18 -31q16 -26 11 -50.5t-31 -39.5q-157 -111 -350 -111q-160 0 -286 71.5t-194.5 195t-68.5 276.5z M289 629h555q-4 132 -74.5 204t-177.5 72q-116 0 -199 -73.5t-104 -202.5zM540.5 1210.5q-12.5 22.5 6.5 53.5l82 137q26 47 80 47h59q42 0 53 -24t-16 -58l-100 -137q-33 -41 -82 -41h-35q-35 0 -47.5 22.5z" />
<glyph unicode="&#xea;" horiz-adv-x="1116" d="M78 518q0 244 146.5 393.5t371.5 149.5q211 0 328.5 -136t117.5 -358q0 -28 -19.5 -48.5t-49.5 -20.5h-692q9 -163 111.5 -257t246.5 -94q138 0 248 82q61 31 92 -22l18 -31q16 -26 11 -50.5t-31 -39.5q-157 -111 -350 -111q-160 0 -286 71.5t-194.5 195t-68.5 276.5z M289 629h555q-4 132 -74.5 204t-177.5 72q-116 0 -199 -73.5t-104 -202.5zM353 1211.5q-9 23.5 14 58.5l94 133q31 45 84 45h100q55 0 82 -45l96 -133q23 -35 14 -58.5t-44 -23.5h-45q-27 0 -41.5 9.5t-30.5 35.5l-80 119h-4l-80 -119q-14 -26 -29 -35.5t-43 -9.5h-41 q-37 0 -46 23.5z" />
<glyph unicode="&#xeb;" horiz-adv-x="1116" d="M78 518q0 244 146.5 393.5t371.5 149.5q211 0 328.5 -136t117.5 -358q0 -28 -19.5 -48.5t-49.5 -20.5h-692q9 -163 111.5 -257t246.5 -94q138 0 248 82q61 31 92 -22l18 -31q16 -26 11 -50.5t-31 -39.5q-157 -111 -350 -111q-160 0 -286 71.5t-194.5 195t-68.5 276.5z M289 629h555q-4 132 -74.5 204t-177.5 72q-116 0 -199 -73.5t-104 -202.5zM342 1309v71q0 68 68 68h28q68 0 68 -68v-71q0 -68 -68 -68h-28q-68 0 -68 68zM684 1309v71q0 68 68 68h28q68 0 68 -68v-71q0 -68 -68 -68h-28q-68 0 -68 68z" />
<glyph unicode="&#xec;" horiz-adv-x="485" d="M18 1424q10 24 52 24h61q54 0 80 -47l80 -139q18 -29 9.5 -51.5t-42.5 -22.5h-41q-49 0 -82 41l-100 137q-27 34 -17 58zM143 68v901q0 67 68 67h63q68 0 68 -67v-901q0 -68 -68 -68h-63q-68 0 -68 68z" />
<glyph unicode="&#xed;" horiz-adv-x="485" d="M143 68v901q0 67 68 67h63q68 0 68 -67v-901q0 -68 -68 -68h-63q-68 0 -68 68zM190.5 1210.5q-12.5 22.5 6.5 53.5l82 137q26 47 79 47h60q42 0 53 -24t-16 -58l-101 -137q-33 -41 -82 -41h-34q-35 0 -47.5 22.5z" />
<glyph unicode="&#xee;" horiz-adv-x="485" d="M2.5 1211.5q-9.5 23.5 13.5 58.5l95 133q31 45 84 45h100q55 0 82 -45l96 -133q23 -35 14 -58.5t-45 -23.5h-45q-27 0 -41 9.5t-30 35.5l-80 119h-4l-80 -119q-14 -26 -29 -35.5t-43 -9.5h-41q-37 0 -46.5 23.5zM143 68v901q0 67 68 67h63q68 0 68 -67v-901 q0 -68 -68 -68h-63q-68 0 -68 68z" />
<glyph unicode="&#xef;" horiz-adv-x="485" d="M-6 1309v71q0 68 67 68h29q68 0 68 -68v-71q0 -68 -68 -68h-29q-67 0 -67 68zM143 68v901q0 67 68 67h63q68 0 68 -67v-901q0 -68 -68 -68h-63q-68 0 -68 68zM336 1309v71q0 68 67 68h29q68 0 68 -68v-71q0 -68 -68 -68h-29q-67 0 -67 68z" />
<glyph unicode="&#xf0;" horiz-adv-x="1183" d="M80 481q0 92 32 176t91.5 151t153.5 106.5t208 39.5q48 0 92.5 -9.5t73 -23.5t50.5 -28t32 -23l10 -10h4q-61 169 -229 281l-297 -133q-34 -12 -50 -8t-28 30l-8 21q-20 47 37 73l209 93q-76 42 -197 77q-63 18 -45 84l12 33q22 63 84 45q211 -57 361 -147l211 94 q34 12 50.5 7t25.5 -28l12 -24q20 -45 -37 -68l-147 -67q137 -114 215.5 -280t78.5 -380q0 -86 -18 -167.5t-58 -158.5t-99 -134.5t-148 -92.5t-197 -35q-112 0 -205.5 43t-153.5 114.5t-93 161.5t-33 187zM283 477q0 -135 76.5 -232.5t211.5 -97.5q79 0 141.5 34.5t99 90.5 t55 121.5t18.5 134.5q0 117 -79.5 192t-211.5 75q-77 0 -138 -27t-98 -72.5t-56 -101t-19 -117.5z" />
<glyph unicode="&#xf1;" horiz-adv-x="1210" d="M143 68v901q0 67 68 67h57q68 0 68 -67v-92l-6 -60h4q17 38 47.5 76.5t78 78.5t117.5 64.5t150 24.5q181 0 267.5 -98.5t86.5 -298.5v-596q0 -68 -67 -68h-64q-67 0 -67 68v550q0 60 -7.5 103t-27.5 81t-60 57.5t-100 19.5q-150 0 -248 -110t-98 -273v-428q0 -68 -68 -68 h-63q-68 0 -68 68zM291 1255q0 84 53.5 139.5t138.5 55.5q41 0 75.5 -14.5t58.5 -35t45.5 -40.5t45.5 -34.5t48 -14.5q35 0 54 26.5t21 65.5q2 19 18 30t44 11h16q60 0 60 -58q0 -92 -52.5 -147t-140.5 -55q-41 0 -75.5 14.5t-58.5 35t-45 40.5t-45 34.5t-48 14.5 q-36 0 -56 -26.5t-22 -65.5q-7 -41 -59 -41h-17q-59 0 -59 65z" />
<glyph unicode="&#xf2;" horiz-adv-x="1267" d="M76 520q0 153 74.5 277.5t202 194t280.5 69.5q115 0 217.5 -41t178 -112t119.5 -172t44 -216q0 -154 -75 -279.5t-203 -195.5t-281 -70t-280.5 70t-202 195.5t-74.5 279.5zM276 520q0 -160 104.5 -266.5t252.5 -106.5q150 0 253 106t103 267q0 159 -103 264t-253 105 q-149 0 -253 -105t-104 -264zM405 1424q10 24 52 24h61q54 0 80 -47l80 -139q18 -29 9.5 -51.5t-42.5 -22.5h-41q-49 0 -82 41l-100 137q-27 34 -17 58z" />
<glyph unicode="&#xf3;" horiz-adv-x="1267" d="M76 520q0 153 74.5 277.5t202 194t280.5 69.5q115 0 217.5 -41t178 -112t119.5 -172t44 -216q0 -154 -75 -279.5t-203 -195.5t-281 -70t-280.5 70t-202 195.5t-74.5 279.5zM276 520q0 -160 104.5 -266.5t252.5 -106.5q150 0 253 106t103 267q0 159 -103 264t-253 105 q-149 0 -253 -105t-104 -264zM579.5 1210.5q-12.5 22.5 6.5 53.5l82 137q26 47 80 47h59q42 0 53 -24t-16 -58l-101 -137q-33 -41 -81 -41h-35q-35 0 -47.5 22.5z" />
<glyph unicode="&#xf4;" horiz-adv-x="1267" d="M76 520q0 153 74.5 277.5t202 194t280.5 69.5q115 0 217.5 -41t178 -112t119.5 -172t44 -216q0 -154 -75 -279.5t-203 -195.5t-281 -70t-280.5 70t-202 195.5t-74.5 279.5zM276 520q0 -160 104.5 -266.5t252.5 -106.5q150 0 253 106t103 267q0 159 -103 264t-253 105 q-149 0 -253 -105t-104 -264zM389.5 1211.5q-9.5 23.5 13.5 58.5l95 133q31 45 84 45h100q55 0 82 -45l96 -133q23 -35 14 -58.5t-45 -23.5h-45q-27 0 -41 9.5t-30 35.5l-80 119h-4l-80 -119q-14 -26 -29 -35.5t-43 -9.5h-41q-37 0 -46.5 23.5z" />
<glyph unicode="&#xf5;" horiz-adv-x="1267" d="M76 520q0 153 74.5 277.5t202 194t280.5 69.5q115 0 217.5 -41t178 -112t119.5 -172t44 -216q0 -154 -75 -279.5t-203 -195.5t-281 -70t-280.5 70t-202 195.5t-74.5 279.5zM276 520q0 -160 104.5 -266.5t252.5 -106.5q150 0 253 106t103 267q0 159 -103 264t-253 105 q-149 0 -253 -105t-104 -264zM295 1255q0 84 53.5 139.5t138.5 55.5q41 0 75.5 -14.5t58.5 -35t45.5 -40.5t45.5 -34.5t48 -14.5q35 0 54.5 26.5t21.5 65.5q2 19 18 30t43 11h16q60 0 60 -58q0 -92 -52.5 -147t-140.5 -55q-41 0 -75.5 14.5t-58.5 35t-45 40.5t-45 34.5 t-48 14.5q-36 0 -56 -26.5t-22 -65.5q-7 -41 -59 -41h-17q-59 0 -59 65z" />
<glyph unicode="&#xf6;" horiz-adv-x="1267" d="M76 520q0 153 74.5 277.5t202 194t280.5 69.5q115 0 217.5 -41t178 -112t119.5 -172t44 -216q0 -154 -75 -279.5t-203 -195.5t-281 -70t-280.5 70t-202 195.5t-74.5 279.5zM276 520q0 -160 104.5 -266.5t252.5 -106.5q150 0 253 106t103 267q0 159 -103 264t-253 105 q-149 0 -253 -105t-104 -264zM381 1309v71q0 68 68 68h28q68 0 68 -68v-71q0 -68 -68 -68h-28q-68 0 -68 68zM723 1309v71q0 68 68 68h28q68 0 68 -68v-71q0 -68 -68 -68h-28q-68 0 -68 68z" />
<glyph unicode="&#xf7;" d="M111 571v25q0 68 67 68h899q68 0 68 -68v-25q0 -67 -68 -67h-899q-67 0 -67 67zM530 158v51q0 67 68 67h57q68 0 68 -67v-51q0 -68 -68 -68h-57q-68 0 -68 68zM530 958v52q0 67 68 67h57q68 0 68 -67v-52q0 -67 -68 -67h-57q-68 0 -68 67z" />
<glyph unicode="&#xf8;" horiz-adv-x="1269" d="M78 520q0 153 74.5 277.5t202 194t280.5 69.5q146 0 276 -68l41 58q39 53 90 20q48 -34 19 -74l-51 -71q86 -73 135 -178.5t49 -227.5q0 -154 -75 -279.5t-203 -195.5t-281 -70q-145 0 -260 62l-43 -60q-37 -55 -88 -20q-50 38 -19 76l47 67q-92 75 -143 183t-51 237z M279 520q0 -155 104 -264l422 590q-78 43 -170 43q-148 0 -252 -105t-104 -264zM481 184q67 -37 154 -37q150 0 253 106t103 267q0 148 -94 248z" />
<glyph unicode="&#xf9;" horiz-adv-x="1202" d="M131 373v596q0 67 68 67h63q66 0 66 -67v-551q0 -59 7.5 -101.5t27.5 -80t60 -57t99 -19.5q103 0 181.5 55.5t117.5 143.5t39 192v418q0 67 68 67h63q68 0 68 -67v-901q0 -68 -68 -68h-57q-68 0 -68 68v92l6 59h-4q-18 -41 -51.5 -81.5t-81 -78t-114 -61t-138.5 -23.5 q-177 0 -264.5 97t-87.5 301zM368 1424q10 24 52 24h61q54 0 80 -47l80 -139q18 -29 9.5 -51.5t-42.5 -22.5h-41q-49 0 -82 41l-100 137q-27 34 -17 58z" />
<glyph unicode="&#xfa;" horiz-adv-x="1202" d="M131 373v596q0 67 68 67h63q66 0 66 -67v-551q0 -59 7.5 -101.5t27.5 -80t60 -57t99 -19.5q103 0 181.5 55.5t117.5 143.5t39 192v418q0 67 68 67h63q68 0 68 -67v-901q0 -68 -68 -68h-57q-68 0 -68 68v92l6 59h-4q-18 -41 -51.5 -81.5t-81 -78t-114 -61t-138.5 -23.5 q-177 0 -264.5 97t-87.5 301zM538.5 1210.5q-12.5 22.5 6.5 53.5l82 137q26 47 80 47h59q42 0 53 -24t-16 -58l-101 -137q-33 -41 -81 -41h-35q-35 0 -47.5 22.5z" />
<glyph unicode="&#xfb;" horiz-adv-x="1202" d="M131 373v596q0 67 68 67h63q66 0 66 -67v-551q0 -59 7.5 -101.5t27.5 -80t60 -57t99 -19.5q103 0 181.5 55.5t117.5 143.5t39 192v418q0 67 68 67h63q68 0 68 -67v-901q0 -68 -68 -68h-57q-68 0 -68 68v92l6 59h-4q-18 -41 -51.5 -81.5t-81 -78t-114 -61t-138.5 -23.5 q-177 0 -264.5 97t-87.5 301zM351 1211.5q-9 23.5 14 58.5l94 133q31 45 84 45h100q55 0 82 -45l96 -133q23 -35 14 -58.5t-44 -23.5h-46q-27 0 -41 9.5t-30 35.5l-80 119h-4l-80 -119q-14 -26 -29 -35.5t-43 -9.5h-41q-37 0 -46 23.5z" />
<glyph unicode="&#xfc;" horiz-adv-x="1202" d="M131 373v596q0 67 68 67h63q66 0 66 -67v-551q0 -59 7.5 -101.5t27.5 -80t60 -57t99 -19.5q103 0 181.5 55.5t117.5 143.5t39 192v418q0 67 68 67h63q68 0 68 -67v-901q0 -68 -68 -68h-57q-68 0 -68 68v92l6 59h-4q-18 -41 -51.5 -81.5t-81 -78t-114 -61t-138.5 -23.5 q-177 0 -264.5 97t-87.5 301zM342 1309v71q0 68 68 68h28q68 0 68 -68v-71q0 -68 -68 -68h-28q-68 0 -68 68zM684 1309v71q0 68 68 68h28q68 0 68 -68v-71q0 -68 -68 -68h-28q-68 0 -68 68z" />
<glyph unicode="&#xfd;" horiz-adv-x="1028" d="M21.5 -360q-7.5 25 5.5 51l16 35q21 49 76 34q55 -22 82 -22q59 0 105 44t73 112l51 118l-401 946q-15 35 -0.5 56.5t51.5 21.5h80q59 0 76 -53l243 -625l37 -125h4q17 70 35 123l236 625q17 55 75 55h74q37 0 51.5 -21.5t1.5 -56.5l-456 -1140q-45 -119 -135 -183.5 t-201 -64.5q-62 0 -144 33q-28 12 -35.5 37zM462.5 1208.5q-12.5 22.5 6.5 53.5l82 137q26 47 80 47h59q42 0 53 -24t-16 -58l-100 -137q-33 -41 -82 -41h-35q-35 0 -47.5 22.5z" />
<glyph unicode="&#xfe;" horiz-adv-x="1212" d="M147 -342v1720q0 68 68 68h64q65 0 65 -68v-403l-2 -86h4q2 2 18 22t30.5 36t43.5 38.5t60 38t77.5 26.5t98.5 11q208 0 333.5 -152t125.5 -391q0 -240 -130 -391.5t-337 -151.5q-67 0 -124.5 17.5t-92 42.5t-60 50t-35.5 43l-10 17h-4q4 -37 4 -90v-397q0 -68 -65 -68 h-64q-68 0 -68 68zM340 516q0 -162 80.5 -265.5t214.5 -103.5q129 0 213 103t84 268q0 164 -81 267.5t-210 103.5q-131 0 -216 -92t-85 -281z" />
<glyph unicode="&#xff;" horiz-adv-x="1028" d="M21.5 -360q-7.5 25 5.5 51l16 35q21 49 76 34q55 -22 82 -22q59 0 105 44t73 112l51 118l-401 946q-15 35 -0.5 56.5t51.5 21.5h80q59 0 76 -53l243 -625l37 -125h4q17 70 35 123l236 625q17 55 75 55h74q37 0 51.5 -21.5t1.5 -56.5l-456 -1140q-45 -119 -135 -183.5 t-201 -64.5q-62 0 -144 33q-28 12 -35.5 37zM266 1307v71q0 68 68 68h28q68 0 68 -68v-71q0 -68 -68 -68h-28q-68 0 -68 68zM608 1307v71q0 68 68 68h29q67 0 67 -68v-71q0 -68 -67 -68h-29q-68 0 -68 68z" />
<glyph unicode="&#x152;" horiz-adv-x="1937" d="M90 725q0 205 97.5 374.5t269.5 267t383 97.5q52 0 134.5 -9t115.5 -9h667q68 0 68 -68v-41q0 -32 -18 -49.5t-50 -17.5h-571v-453h450q68 0 68 -67v-41q0 -68 -68 -68h-450v-465h606q68 0 68 -67v-41q0 -68 -68 -68h-700q-33 0 -116.5 -9t-135.5 -9q-210 0 -382.5 98 t-270 268.5t-97.5 376.5zM299 725q0 -158 68 -287.5t192.5 -204.5t280.5 -75q36 0 72.5 4t54.5 8l18 4v1100q-63 14 -145 14q-236 0 -388.5 -162t-152.5 -401z" />
<glyph unicode="&#x153;" horiz-adv-x="2027" d="M76 516q0 160 75 285.5t200 192.5t276 67t265.5 -65t184.5 -181h4q63 118 171 182t255 64q211 0 330 -136t119 -358q0 -28 -21 -48.5t-51 -20.5h-690q12 -165 113 -258t243 -93q135 0 250 82q62 32 90 -22l19 -31q32 -60 -21 -90q-59 -43 -149 -77t-201 -34 q-157 0 -272.5 67t-180.5 185h-4q-70 -119 -184.5 -185.5t-267.5 -66.5q-152 0 -277.5 66t-200.5 190.5t-75 284.5zM279 516q0 -165 102.5 -267t251.5 -102t252.5 103.5t103.5 271.5q0 163 -104.5 265t-251.5 102q-148 0 -251 -104t-103 -269zM1200 629h553 q-4 128 -74.5 201t-173.5 73q-117 0 -200.5 -73.5t-104.5 -200.5z" />
<glyph unicode="&#x178;" horiz-adv-x="1161" d="M34.5 1423q13.5 23 53.5 23h82q55 0 78 -47l244 -428q19 -36 41 -82t35 -73l12 -28h4q43 101 88 183l241 428q23 47 78 47h82q40 0 53.5 -23t-6.5 -57l-438 -754v-544q0 -68 -68 -68h-67q-68 0 -68 68v544l-438 754q-20 34 -6.5 57zM322 1667v72q0 67 67 67h29 q67 0 67 -67v-72q0 -68 -67 -68h-29q-67 0 -67 68zM664 1667v72q0 67 67 67h29q67 0 67 -67v-72q0 -68 -67 -68h-29q-67 0 -67 68z" />
<glyph unicode="&#x2c6;" horiz-adv-x="1021" d="M269 1569.5q-9 23.5 14 58.5l94 133q31 45 84 45h100q55 0 82 -45l96 -133q23 -35 14 -58.5t-44 -23.5h-45q-27 0 -41.5 9.5t-30.5 35.5l-80 119h-4l-80 -119q-14 -26 -29 -35.5t-43 -9.5h-41q-37 0 -46 23.5z" />
<glyph unicode="&#x2dc;" horiz-adv-x="1021" d="M172 1614q0 84 54 139t139 55q41 0 75.5 -14.5t58.5 -35t45 -40.5t45 -34.5t48 -14.5q35 0 54.5 26.5t21.5 65.5q2 19 18 30t43 11h17q59 0 59 -57q0 -92 -52.5 -147.5t-140.5 -55.5q-41 0 -75.5 14.5t-58.5 35t-45 40.5t-45 34.5t-48 14.5q-36 0 -56 -26.5t-22 -65.5 q-7 -41 -59 -41h-17q-59 0 -59 66z" />
<glyph unicode="&#x2000;" horiz-adv-x="913" />
<glyph unicode="&#x2001;" horiz-adv-x="1827" />
<glyph unicode="&#x2002;" horiz-adv-x="913" />
<glyph unicode="&#x2003;" horiz-adv-x="1827" />
<glyph unicode="&#x2004;" horiz-adv-x="609" />
<glyph unicode="&#x2005;" horiz-adv-x="456" />
<glyph unicode="&#x2006;" horiz-adv-x="304" />
<glyph unicode="&#x2007;" horiz-adv-x="304" />
<glyph unicode="&#x2008;" horiz-adv-x="228" />
<glyph unicode="&#x2009;" horiz-adv-x="365" />
<glyph unicode="&#x200a;" horiz-adv-x="101" />
<glyph unicode="&#x2010;" horiz-adv-x="860" d="M131 563v41q0 32 18 50t50 18h463q67 0 67 -68v-41q0 -67 -67 -67h-463q-68 0 -68 67z" />
<glyph unicode="&#x2011;" horiz-adv-x="860" d="M131 563v41q0 32 18 50t50 18h463q67 0 67 -68v-41q0 -67 -67 -67h-463q-68 0 -68 67z" />
<glyph unicode="&#x2012;" horiz-adv-x="860" d="M131 563v41q0 32 18 50t50 18h463q67 0 67 -68v-41q0 -67 -67 -67h-463q-68 0 -68 67z" />
<glyph unicode="&#x2013;" horiz-adv-x="1341" d="M133 571v25q0 68 66 68h944q32 0 49.5 -18t17.5 -50v-25q0 -67 -67 -67h-944q-66 0 -66 67z" />
<glyph unicode="&#x2014;" horiz-adv-x="1751" d="M133 571v25q0 68 66 68h1353q32 0 50 -18t18 -50v-25q0 -67 -68 -67h-1353q-66 0 -66 67z" />
<glyph unicode="&#x2018;" horiz-adv-x="428" d="M94 1100l103 315q18 53 75 53h19q71 0 55 -73l-74 -312q-12 -61 -71 -61h-51q-37 0 -52.5 21.5t-3.5 56.5z" />
<glyph unicode="&#x2019;" horiz-adv-x="423" d="M98 1098l72 311q12 59 74 59h49q37 0 52 -20t3 -55l-102 -316q-18 -55 -76 -55h-16q-36 0 -50.5 20t-5.5 56z" />
<glyph unicode="&#x201a;" horiz-adv-x="462" d="M78 -158l74 314q12 59 73 59h49q37 0 52.5 -21t3.5 -55l-103 -315q-18 -55 -75 -55h-17q-70 0 -57 73z" />
<glyph unicode="&#x201c;" horiz-adv-x="729" d="M94 1100l103 315q18 53 75 53h19q71 0 55 -73l-72 -312q-12 -61 -73 -61h-51q-37 0 -52.5 21.5t-3.5 56.5zM395 1100l103 315q18 53 75 53h19q71 0 55 -73l-72 -312q-15 -61 -73 -61h-51q-37 0 -52.5 21.5t-3.5 56.5z" />
<glyph unicode="&#x201d;" horiz-adv-x="724" d="M98 1098l72 311q12 59 74 59h51q37 0 52 -20t3 -55l-102 -316q-18 -55 -78 -55h-16q-36 0 -50.5 20t-5.5 56zM397 1098l74 311q12 59 74 59h51q37 0 51.5 -20t3.5 -55l-102 -316q-21 -55 -78 -55h-16q-36 0 -51 20t-7 56z" />
<glyph unicode="&#x201e;" horiz-adv-x="763" d="M78 -158l74 314q12 59 73 59h51q36 0 51.5 -21t4.5 -55l-103 -315q-21 -55 -77 -55h-17q-73 0 -57 73zM379 -158l74 314q12 59 71 59h51q38 0 53 -21t3 -55l-101 -315q-21 -55 -77 -55h-19q-35 0 -49 19.5t-6 53.5z" />
<glyph unicode="&#x2022;" horiz-adv-x="841" d="M104 596q0 132 92.5 224.5t223.5 92.5q132 0 224.5 -92.5t92.5 -224.5t-92.5 -224.5t-224.5 -92.5q-131 0 -223.5 92.5t-92.5 224.5z" />
<glyph unicode="&#x2026;" horiz-adv-x="1525" d="M127 68v79q0 68 68 68h73q68 0 68 -68v-79q0 -68 -68 -68h-73q-68 0 -68 68zM659 68v79q0 68 66 68h74q67 0 67 -68v-79q0 -68 -67 -68h-74q-66 0 -66 68zM1190 68v79q0 68 67 68h74q68 0 68 -68v-79q0 -68 -68 -68h-74q-67 0 -67 68z" />
<glyph unicode="&#x202f;" horiz-adv-x="365" />
<glyph unicode="&#x2039;" horiz-adv-x="657" d="M102 530q-41 48 0 95l265 336q32 38 84 38h41q43 0 54.5 -23.5t-16.5 -57.5l-268 -340l268 -338q28 -34 19 -58t-49 -24h-49q-51 0 -84 39z" />
<glyph unicode="&#x203a;" horiz-adv-x="657" d="M110 975.5q10 23.5 50 23.5h49q50 0 82 -38l266 -336q41 -47 0 -95l-266 -333q-33 -39 -82 -39h-43q-43 0 -54 24t15 58l268 338l-268 340q-27 34 -17 57.5z" />
<glyph unicode="&#x205f;" horiz-adv-x="456" />
<glyph unicode="&#x20ac;" horiz-adv-x="1226" d="M82 594q0 33 13.5 48t47.5 15h52q-11 67 0 148h-50q-34 0 -48.5 16t-14.5 49t14.5 49.5t48.5 16.5h72q64 236 254 385t440 149q55 0 138 -10q70 -13 51 -82l-15 -55q-15 -60 -69 -51q-68 10 -109 10q-170 0 -295.5 -93.5t-177.5 -252.5h500q73 0 61 -68q-6 -34 -23 -48.5 t-52 -14.5h-517q-10 -72 0 -148h478q76 0 61 -67q-6 -34 -23 -48t-51 -14h-430q48 -163 176.5 -261.5t298.5 -98.5q73 0 121 10q69 13 80 -49l12 -55q13 -68 -51 -80q-93 -19 -164 -19q-259 0 -448 152.5t-248 400.5h-72q-34 0 -47.5 16t-13.5 50z" />
<glyph unicode="&#x2122;" horiz-adv-x="1976" d="M82 1372v10q0 64 68 64h643q67 0 67 -64v-10q0 -63 -67 -63h-244v-697q0 -67 -68 -67h-20q-68 0 -68 67v697h-243q-68 0 -68 63zM930 614l63 768q1 31 19 47.5t49 16.5h22q58 0 80 -51l189 -420q7 -16 14 -37.5t10 -35.5l4 -13h4q13 49 29 86l189 420q22 51 79 51h23 q31 0 49 -16.5t19 -47.5l61 -768q3 -69 -66 -69h-20q-62 0 -68 63l-37 475q-1 16 0 30t2 23l1 9h-5l-174 -381q-20 -53 -77 -53h-13q-58 0 -78 53l-174 381h-4l2 -62l-39 -475q-3 -63 -67 -63h-21q-68 0 -65 69z" />
<glyph unicode="&#xe000;" horiz-adv-x="1034" d="M0 0v1034h1034v-1034h-1034z" />
</font>
</defs>
</svg>
