<?xml version="1.0" standalone="no"?>
<!DOCTYPE svg PUBLIC "-//W3C//DTD SVG 1.1//EN" "http://www.w3.org/Graphics/SVG/1.1/DTD/svg11.dtd" >
<svg>
<metadata>
Created by FontForge 20090622 at Mon Mar 20 11:00:22 2017
 By deploy user
CJSfonts &#194;&#169; (CJSapps). &#60;2012&#62;. All Rights Reserved
</metadata>
<defs>
<font id="GameofThrones" horiz-adv-x="1957" >
  <font-face 
    font-family="Game of Thrones"
    font-weight="400"
    font-stretch="normal"
    units-per-em="2048"
    panose-1="2 0 5 0 0 0 0 0 0 0"
    ascent="2048"
    descent="0"
    x-height="2047"
    cap-height="2048"
    bbox="5 -385 17742 2050.51"
    underline-thickness="150"
    underline-position="-142"
    unicode-range="U+0020-U+007A"
  />
<missing-glyph horiz-adv-x="834" 
d="M5 0v1434h824v-1434h-824zM55 50h724v1334h-724v-1334zM230 1148q31 28 58 43q53 30 112 30q92 0 148 -47.5t56 -127.5q0 -49 -23 -98.5t-87 -129.5q-63 -80 -99 -132t-36 -99q0 -38 24 -133h-32q-35 97 -35 148q0 76 81.5 218t81.5 217q0 57 -33 90t-91 33
q-38 0 -69 -17q-26 -15 -56 -40v45zM294 334l57 58q11 10 20 10q10 0 22 -11l56 -60q9 -11 9 -20q0 -11 -10 -22l-56 -62q-14 -14 -21 -14q-11 0 -20 10l-61 71q-7 9 -7 18q0 10 11 22z" />
    <glyph glyph-name=".notdef" horiz-adv-x="834" 
d="M5 0v1434h824v-1434h-824zM55 50h724v1334h-724v-1334zM230 1148q31 28 58 43q53 30 112 30q92 0 148 -47.5t56 -127.5q0 -49 -23 -98.5t-87 -129.5q-63 -80 -99 -132t-36 -99q0 -38 24 -133h-32q-35 97 -35 148q0 76 81.5 218t81.5 217q0 57 -33 90t-91 33
q-38 0 -69 -17q-26 -15 -56 -40v45zM294 334l57 58q11 10 20 10q10 0 22 -11l56 -60q9 -11 9 -20q0 -11 -10 -22l-56 -62q-14 -14 -21 -14q-11 0 -20 10l-61 71q-7 9 -7 18q0 10 11 22z" />
    <glyph glyph-name=".null" horiz-adv-x="0" 
 />
    <glyph glyph-name="nonmarkingreturn" horiz-adv-x="508" 
 />
    <glyph glyph-name="space" unicode=" " horiz-adv-x="508" 
 />
    <glyph glyph-name="space" unicode="&#xa0;" horiz-adv-x="508" 
 />
    <glyph glyph-name="numbersign" unicode="#" horiz-adv-x="17747" 
d="M1418 674q157 -40 204 -104q23 -32 15 -56v-670q-118 -110 -333 -101q-386 0 -704 273q-345 297 -345 722q0 445 251 698q249 251 679 251q357 0 543 -238q93 -118 114 -237l73 479q-150 46 -752 91q-747 0 -1021 -520q-137 -260 -124 -520q0 -576 362 -869
q317 -258 851 -258q475 0 662 151v748q-8 24 15 56q47 64 204 104h-694zM2532 660l196 566l190 -567zM2740 1540l-539 -1428q-10 -31 -40 -64q-59 -67 -159 -81h461q-30 7 -60 23q-61 32 -61 77l166 497h434l202 -521q-85 -24 -121 -76h497q-31 7 -68 27q-76 40 -110 106
q-54 105 -602 1440zM5243 1522l-651 -1279l-632 1297l-181 -1411q-5 -63 -69 -110q-32 -23 -63 -33h446q-31 10 -64 33q-64 47 -69 110v50l109 798l517 -974l6 -5h1v-1l1 2l522 942l181 -780v-50q-5 -63 -69 -110q-32 -23 -63 -34h445q-31 11 -63 34q-64 47 -69 110z
M6134 97q-47 33 -72 66v584h251q118 0 169 -83q25 -42 27 -84l38 308q-61 -50 -157 -52h-328v588h299q95 0 139 -86q22 -43 25 -85l59 287l-59 -28h-807q125 -36 160 -107q2 -1173 2 -1283q0 -68 -67 -118q-34 -25 -68 -37h839l32 272q-26 -52 -73 -104q-96 -104 -205 -104
q-110 0 -204 66zM7685 1037q88 -27 144 -94q80 -95 80 -257t-80 -250q-56 -62 -144 -80v681zM7662 352q-16 -2 -31 -3v700q15 -2 31 -5v-692zM7593 351q-13 2 -26 5v688q13 3 26 5v-698zM7544 362q-88 26 -143 90q-78 92 -78 249q0 158 78 249q55 64 143 89v-677zM7427 1050
q-202 -95 -202 -362q0 -190 144 -294q115 -83 260 -83q133 0 246 95q131 110 131 280q0 174 -127 295q-115 111 -250 111q-101 5 -202 -42zM8335 1034q47 0 69 -42q11 -22 12 -43l30 143l-30 -14h-400q62 -18 79 -53q0 -222 1 -404h-1v-238q-2 -32 -34 -55q-16 -12 -32 -17
h224q-16 5 -32 17q-32 23 -35 55v13l1 12v290h124q59 0 84 -41q13 -21 13 -42l20 153q-31 -25 -78 -26h-163v292h148zM16964 2002l-77 -35h-8210l-77 35l77 -371q4 55 32 110q57 111 180 111h385v-24q1 -577 2 -1053v-620q-7 -82 -91 -143q-42 -31 -82 -45h583
q-41 14 -83 45q-84 61 -90 143v620q1 476 2 1053v24h7160q123 0 180 -111q28 -55 32 -110zM11059 1395q5 63 70 110q32 24 64 35h-451q32 -11 64 -35q65 -47 70 -110v-511h-865v511q5 63 70 110q32 24 64 35h-451q32 -11 64 -35q65 -47 70 -110v-1282q-5 -64 -70 -111
q-32 -24 -64 -35h451q-32 11 -64 35q-65 47 -70 111v662h865v-662q-5 -64 -70 -111q-32 -24 -64 -35h451q-32 11 -64 35q-65 47 -70 111v1282zM11597 748q6 494 6 616q0 83 35 98q14 6 125 6q112 0 201 -94q110 -116 110 -319q0 -187 -107 -265q-53 -40 -107 -42h-263z
M12020 696q162 145 217 315q27 85 21 140q0 304 -330 372q-165 34 -331 7h-314q31 -11 63 -34q65 -47 70 -111v-1273q-5 -64 -70 -110q-32 -24 -63 -35h447q-31 11 -63 35q-65 46 -70 110v526q202 0 343 -108q71 -55 101 -109q68 -113 162 -227q189 -227 321 -227t199 34
q33 17 40 34q-149 -32 -329 144q-100 98 -233 293q-102 151 -181 224zM13490 1430q178 -55 290 -190q160 -191 160 -518q0 -326 -160 -502q-112 -124 -290 -162v1372zM13443 50q-31 -4 -62 -5v1409q30 -4 62 -11v-1393zM13304 49q-24 3 -52 9v1386q26 6 52 9v-1404z
M13205 70q-176 52 -287 182q-157 185 -157 502t157 499q111 130 287 180v-1363zM12970 1455q-406 -191 -406 -727q0 -384 290 -594q230 -167 522 -167q268 0 496 192q264 221 264 563q0 350 -256 595q-232 222 -504 222q-203 12 -406 -84zM15343 1540q31 -11 64 -35
q65 -47 70 -111v-1055l-1144 1201v-1427q-5 -64 -70 -111q-33 -24 -64 -35h451q-32 11 -64 35q-65 47 -70 111v1041l1143 -1187v2l1 -2v1427q5 64 70 111q32 24 64 35h-451zM16319 95q-46 33 -70 65v575h246q117 0 167 -82q25 -41 26 -82l38 303q-60 -50 -154 -52h-323v603
h293q94 0 138 -84q21 -42 24 -84l58 283l-58 -27h-794q123 -36 157 -106q2 -1179 2 -1287q0 -67 -66 -117q-33 -24 -66 -36h825l32 267q-26 -51 -72 -102q-94 -102 -202 -102t-201 65zM17138 1268q0 93 65 144q69 53 198 53q117 0 188 -98q57 -78 57 -159l48 272
q-9 15 -51 30q-84 30 -248 30q-189 0 -308 -105q-110 -96 -110 -233q0 -117 87 -231q58 -77 216 -217q162 -145 220 -218q91 -114 91 -220q0 -107 -113 -183q-98 -65 -195 -65q-108 0 -192 60q-111 79 -111 230q-37 -165 -24 -278q19 -28 60 -56q82 -57 194 -57
q174 0 333 105q199 131 199 350q0 138 -116 273q-55 64 -219 198q-269 222 -269 375z" />
    <glyph glyph-name="A" unicode="A" horiz-adv-x="1988" 
d="M696 902l255 690l247 -692zM1982 0q-40 9 -89 35q-98 52 -142 138q-71 137 -785 1875l-702 -1860q-13 -40 -52 -84q-77 -87 -207 -104h600q-39 9 -78 29q-79 42 -79 101l216 647h565l263 -679q-110 -31 -157 -98h647z" />
    <glyph glyph-name="B" unicode="B" horiz-adv-x="1264" 
d="M486 101q-57 21 -57 128q0 159 -8 802h366q69 -3 139 -54q140 -102 140 -345q0 -265 -143 -416q-117 -123 -262 -123q-153 0 -175 8zM486 1947q22 8 175 8q148 0 238 -87q120 -117 120 -380q0 -144 -116 -240q-58 -48 -116 -68h-366q8 480 8 639q0 107 57 128zM934 1106
q6 3 8 6q195 149 239 502q0 278 -267 377q-144 53 -431 57h-478q13 -4 31 -13l-31 13q41 -17 83 -51q84 -68 90 -150v-1646q-6 -82 -90 -150q-42 -34 -83 -51l31 13q-18 -9 -31 -13h558q267 -4 439 82q250 126 250 424q7 72 -28 183q-71 221 -282 410q-2 3 -8 7z" />
    <glyph glyph-name="C" unicode="C" horiz-adv-x="1815" 
d="M1810 159q-49 -40 -155 -80q-211 -79 -491 -79q-31 0 -66 1v0v0q-480 17 -761 261q-320 277 -320 803q-12 246 117 491q259 492 965 492q569 -43 711 -86l-68 -453q-21 112 -109 224q-175 224 -512 224q-407 0 -642 -236q-238 -240 -238 -660q0 -402 326 -682
q301 -258 666 -258q72 5 174 50q203 91 350 294z" />
    <glyph glyph-name="D" unicode="D" 
d="M443 211v1600q164 134 418 134q398 0 627 -232q233 -234 233 -645q0 -395 -319 -682q-297 -268 -651 -268q-198 -8 -308 93zM5 2048q145 -37 188 -96q22 -29 14 -52v-1773q-10 -52 -100 -93l-102 -34h814q488 0 787 253q334 284 334 819q12 244 -114 488
q-253 488 -943 488h-878z" />
    <glyph glyph-name="E" unicode="E" horiz-adv-x="1179" 
d="M1056 2012l77 36l-77 -374q-4 56 -33 111q-57 112 -181 112h-389v-766h428q124 3 204 68l-50 -401q-2 55 -35 109q-66 108 -220 108h-327v-760q33 -43 94 -86q123 -86 265 -86q143 0 267 135q62 68 95 135l-41 -353h-1092q43 15 87 47q88 66 88 155q0 142 -3 1671
q-45 92 -208 139h1051z" />
    <glyph glyph-name="F" unicode="F" horiz-adv-x="1138" 
d="M453 1131v766h389q124 0 181 -112q29 -55 33 -111l77 374l-77 -36h-1051q163 -47 208 -139q1 -581 2 -1060h-1v-624q-7 -83 -91 -144q-42 -31 -83 -45h586q-41 14 -83 45q-85 61 -91 144v33l1 33v760h327q154 0 220 -108q33 -54 35 -109l50 401q-80 -65 -204 -68h-428z
" />
    <glyph glyph-name="G" unicode="G" horiz-adv-x="2001" 
d="M1548 849q7 23 -15 53q-44 61 -192 98h655q-148 -37 -192 -98q-23 -30 -15 -53v-707q-44 -35 -144 -71q-201 -71 -481 -71q-505 0 -805 243q-342 277 -342 822q-12 246 117 491q259 492 965 492q569 -43 712 -86l-69 -453q-21 112 -109 224q-175 225 -512 225
q-407 0 -642 -237q-238 -240 -238 -660q0 -402 326 -682q301 -258 666 -258q202 -9 315 95v633z" />
    <glyph glyph-name="H" unicode="H" horiz-adv-x="1962" 
d="M1783 1859q6 83 91 144q42 31 83 45h-587q41 -14 84 -45q84 -61 90 -144v-665h-1126v665q6 83 90 144q43 31 84 45h-587q41 -14 83 -45q85 -61 91 -144v-1670q-6 -83 -91 -144q-42 -31 -83 -45h587q-41 14 -84 45q-84 61 -90 144v863h1126v-863q-6 -83 -90 -144
q-43 -31 -84 -45h587q-41 14 -83 45q-85 61 -91 144v1670z" />
    <glyph glyph-name="I" unicode="I" horiz-adv-x="597" 
d="M418 1859q6 83 90 144q43 31 84 45h-587q41 -14 83 -45q85 -61 91 -144v-1670q-6 -83 -91 -144q-42 -31 -83 -45h587q-41 14 -84 45q-84 61 -90 144v1670z" />
    <glyph glyph-name="J" unicode="J" horiz-adv-x="838" 
d="M659 1859q6 83 91 144q42 31 83 45h-587q41 -14 83 -45q85 -61 91 -144v-1494q-43 -179 -113 -239q-95 -81 -302 -38q9 -22 52 -44q88 -44 261 -44q216 -2 300 152q42 78 41 156v1551z" />
    <glyph glyph-name="K" unicode="K" 
d="M701 1159l603 591q216 249 408 298h-568q31 0 52 -13q41 -26 -11 -93l-766 -756l4 704q31 111 169 158h-587q41 -14 83 -45q85 -61 91 -144v-1670q-6 -83 -91 -144q-42 -31 -83 -45h587q-41 14 -84 45q-84 61 -91 144v692l129 126l888 -907q40 -58 -1 -82
q-21 -11 -49 -11h568q-192 48 -408 298z" />
    <glyph glyph-name="L" unicode="L" horiz-adv-x="1200" 
d="M461 1912l-7 -1707q0 145 3 1701q2 2 4 6zM557 172q-63 44 -96 88v1652q57 92 208 136h-664q166 -48 211 -142q3 -1556 3 -1701q0 -90 -89 -157q-44 -33 -89 -48h1112l42 359q-34 -68 -97 -137q-126 -137 -271 -137q-146 0 -270 87z" />
    <glyph glyph-name="M" unicode="M" horiz-adv-x="2568" 
d="M1239 41l680 1228l235 -1016v-66q-6 -82 -90 -143q-42 -30 -82 -44h580q-40 14 -82 44q-84 61 -90 143l-305 1837l-849 -1641l-824 1665l-235 -1837q-6 -83 -90 -143q-41 -31 -82 -45h581q-41 14 -83 45q-83 60 -90 143v65l141 1040l675 -1269l7 -7h1v-1z" />
    <glyph glyph-name="N" unicode="N" horiz-adv-x="2087" 
d="M1495 2048q41 -14 83 -45q85 -61 91 -144v-1375l-1490 1564v-1859q-6 -83 -91 -144q-42 -31 -83 -45h587q-41 14 -83 45q-85 61 -91 144v1356l1489 -1545v2l1 -2v1859q6 83 91 144q42 31 83 45h-587z" />
    <glyph glyph-name="O" unicode="O" horiz-adv-x="2058" 
d="M1211 1905q231 -71 378 -247q208 -249 208 -675q0 -425 -208 -654q-147 -162 -378 -211v1787zM465 1675q145 168 375 234v-1775q-230 67 -375 237q-204 240 -204 653t204 651zM1069 1936q40 -5 81 -14v-1815q-43 -5 -81 -6v1835zM968 106q-32 5 -67 12v1806q33 7 67 11
v-1829zM534 1938q-529 -249 -529 -948q0 -500 377 -773q300 -217 680 -217q350 0 647 249q343 288 343 734q0 456 -333 775q-303 289 -657 289q-264 16 -528 -109z" />
    <glyph glyph-name="P" unicode="P" horiz-adv-x="1288" 
d="M415 1017q8 643 8 802q0 109 45 128q18 8 163 8t262 -123q143 -151 143 -416q0 -243 -139 -345q-70 -51 -140 -54h-342zM1247 1359q36 111 29 183q0 396 -431 484q-215 44 -430 9h-410q41 -14 83 -45q84 -61 90 -143v-1659q-6 -83 -90 -144q-42 -30 -83 -44h583
q-41 14 -83 44q-84 61 -90 144v686q308 0 460 37q76 19 90 38q212 189 282 410z" />
    <glyph glyph-name="Q" unicode="Q" horiz-adv-x="2058" 
d="M1150 107q-33 -4 -81 -6l-101 5q-32 5 -67 12l-61 16q-230 67 -375 237q-204 240 -204 653t204 651q145 168 375 234l61 15q33 7 67 11l101 1q40 -5 81 -14l61 -17q231 -71 378 -247q208 -249 208 -675q0 -387 -174 -612q-177 112 -329 -40q78 -20 195 -92
q-121 -88 -278 -121zM2052 983q0 456 -333 775q-303 289 -657 289q-264 16 -528 -109q-529 -249 -529 -948q0 -500 377 -773q300 -217 680 -217q272 0 534 166q35 -26 61 -48q137 -115 225 -116q49 0 137 56q-38 4 -93 32q-110 58 -194 179q320 285 320 714z" />
    <glyph glyph-name="R" unicode="R" horiz-adv-x="1938" 
d="M415 1017q8 643 8 802q0 109 45 128q18 8 163 8t262 -123q143 -151 143 -416q0 -243 -139 -345q-70 -51 -140 -54h-342zM965 949q212 189 282 410q36 111 29 183q0 396 -431 484q-215 44 -430 9h-410q41 -14 83 -45q84 -61 90 -143v-1659q-6 -83 -90 -144
q-42 -30 -83 -44h583q-41 14 -83 44q-84 61 -90 144v686q263 0 447 -142q92 -70 131 -141q88 -148 211 -296q246 -295 418 -295t258 44q44 22 53 43q-194 -40 -428 188q-131 128 -304 383q-133 196 -236 291z" />
    <glyph glyph-name="S" unicode="S" horiz-adv-x="1050" 
d="M22 147q24 -37 78 -74q107 -73 252 -73q227 0 434 136q259 171 259 456q0 180 -152 356q-71 83 -285 258q-350 288 -350 488q0 121 85 188q89 68 257 68q153 0 246 -127q73 -102 73 -207l63 354q-11 20 -66 39q-109 39 -323 39q-246 0 -401 -136q-143 -126 -143 -304
q0 -153 113 -301q75 -100 281 -283q211 -188 287 -283q118 -149 118 -287q0 -140 -147 -238q-127 -85 -254 -85q-141 0 -250 78q-144 103 -144 300q-48 -216 -31 -362z" />
    <glyph glyph-name="T" unicode="T" horiz-adv-x="1608" 
d="M1526 2012h-1444l-77 36l77 -374q4 56 32 111q58 112 182 112h386l1 -24q1 -581 2 -1060v-624q-7 -83 -91 -144q-43 -31 -84 -45h587q-41 14 -83 45q-85 61 -91 144v624q1 479 2 1060v24h387q124 0 181 -112q29 -55 33 -111l77 374z" />
    <glyph glyph-name="U" unicode="U" horiz-adv-x="2048" 
d="M1463 2048q40 -9 80 -41q79 -66 79 -183v-867q0 -427 -131 -637q-103 -164 -298 -205l-59 -10q-32 -5 -79 -7l-98 6q-32 4 -66 11l-58 15q-423 124 -423 867l1 247l2 617q7 82 90 143q42 30 83 44h-581q33 -7 69 -33q71 -52 86 -143v-908q0 -494 297 -753
q243 -211 592 -211q322 0 559 243q264 270 264 714v907q7 81 90 141q42 29 81 43h-580z" />
    <glyph glyph-name="V" unicode="V" horiz-adv-x="2042" 
d="M1444 2048q42 -14 85 -45q85 -61 91 -144l-599 -1383l-599 1383q6 83 92 144q42 31 84 45h-593q33 -8 69 -34q73 -52 88 -144l851 -1870v18l8 -18l857 1870q16 92 89 144q37 26 70 34h-593z" />
    <glyph glyph-name="W" unicode="W" horiz-adv-x="3058" 
d="M2037 476l600 1383q-7 83 -92 144q-43 31 -84 45h592q-33 -8 -69 -34q-73 -52 -88 -144l-851 -1870v18l-8 -18l-508 1097l-508 -1097l-8 18v-18l-851 1870q-15 92 -88 144q-36 26 -69 34h593q-42 -14 -84 -45q-86 -61 -92 -144l599 -1383l385 887l123 309l124 -309z" />
    <glyph glyph-name="X" unicode="X" horiz-adv-x="1677" 
d="M974 1080l420 790q16 92 89 144q36 26 70 34h-593q42 -14 84 -45q86 -61 92 -144l-285 -556l-1 -2l-1 2l-308 556q6 83 92 144q42 31 84 45h-593q33 -8 70 -34q73 -52 89 -144l430 -807l-549 -885q-16 -92 -89 -144q-37 -26 -70 -34h593q-42 14 -84 45q-86 61 -92 145
l284 428l132 228l132 -228l285 -428q-10 -134 -128 -190h545q-34 8 -70 34q-73 52 -89 144z" />
    <glyph glyph-name="Y" unicode="Y" horiz-adv-x="1659" 
d="M1062 2048q42 -14 84 -45q86 -61 92 -144l-408 -691l-409 691q7 83 92 144q43 31 84 45h-592q33 -8 69 -34q73 -52 88 -144l548 -879v-802q-6 -83 -91 -144q-42 -31 -83 -45h587q-41 14 -83 45q-85 61 -91 144v811l547 870q15 92 88 144q37 26 70 34h-592z" />
    <glyph glyph-name="Z" unicode="Z" horiz-adv-x="1376" 
d="M1371 2048h-1280l78 -344q4 57 33 113q58 113 184 113h630l-881 -1677l-130 -253h116h1032h79l-79 344q-3 -56 -32 -113q-58 -113 -185 -113h-622l981 1786z" />
    <glyph glyph-name="a" unicode="a" horiz-adv-x="1988" 
d="M696 902l255 690l247 -692zM1982 0q-40 9 -89 35q-98 52 -142 138q-71 137 -785 1875l-702 -1860q-13 -40 -52 -84q-77 -87 -207 -104h600q-39 9 -78 29q-79 42 -79 101l216 647h565l263 -679q-110 -31 -157 -98h647z" />
    <glyph glyph-name="b" unicode="b" horiz-adv-x="1264" 
d="M486 101q-57 21 -57 128q0 159 -8 802h366q69 -3 139 -54q140 -102 140 -345q0 -265 -143 -416q-117 -123 -262 -123q-153 0 -175 8zM486 1947q22 8 175 8q148 0 238 -87q120 -117 120 -380q0 -144 -116 -240q-58 -48 -116 -68h-366q8 480 8 639q0 107 57 128zM934 1106
q6 3 8 6q195 149 239 502q0 278 -267 377q-144 53 -431 57h-478q13 -4 31 -13l-31 13q41 -17 83 -51q84 -68 90 -150v-1646q-6 -82 -90 -150q-42 -34 -83 -51l31 13q-18 -9 -31 -13h558q267 -4 439 82q250 126 250 424q7 72 -28 183q-71 221 -282 410q-2 3 -8 7z" />
    <glyph glyph-name="c" unicode="c" horiz-adv-x="1815" 
d="M1810 159q-49 -40 -155 -80q-211 -79 -491 -79q-31 0 -66 1v0v0q-480 17 -761 261q-320 277 -320 803q-12 246 117 491q259 492 965 492q569 -43 711 -86l-68 -453q-21 112 -109 224q-175 224 -512 224q-407 0 -642 -236q-238 -240 -238 -660q0 -402 326 -682
q301 -258 666 -258q72 5 174 50q203 91 350 294z" />
    <glyph glyph-name="d" unicode="d" 
d="M443 211v1600q164 134 418 134q398 0 627 -232q233 -234 233 -645q0 -395 -319 -682q-297 -268 -651 -268q-198 -8 -308 93zM5 2048q145 -37 188 -96q22 -29 14 -52v-1773q-10 -52 -100 -93l-102 -34h814q488 0 787 253q334 284 334 819q12 244 -114 488
q-253 488 -943 488h-878z" />
    <glyph glyph-name="e" unicode="e" horiz-adv-x="1179" 
d="M1056 2012l77 36l-77 -374q-4 56 -33 111q-57 112 -181 112h-389v-766h428q124 3 204 68l-50 -401q-2 55 -35 109q-66 108 -220 108h-327v-760q33 -43 94 -86q123 -86 265 -86q143 0 267 135q62 68 95 135l-41 -353h-1092q43 15 87 47q88 66 88 155q0 142 -3 1671
q-45 92 -208 139h1051z" />
    <glyph glyph-name="f" unicode="f" horiz-adv-x="1138" 
d="M453 1131v766h389q124 0 181 -112q29 -55 33 -111l77 374l-77 -36h-1051q163 -47 208 -139q1 -581 2 -1060h-1v-624q-7 -83 -91 -144q-42 -31 -83 -45h586q-41 14 -83 45q-85 61 -91 144v33l1 33v760h327q154 0 220 -108q33 -54 35 -109l50 401q-80 -65 -204 -68h-428z
" />
    <glyph glyph-name="g" unicode="g" horiz-adv-x="2001" 
d="M1548 849q7 23 -15 53q-44 61 -192 98h655q-148 -37 -192 -98q-23 -30 -15 -53v-707q-44 -35 -144 -71q-201 -71 -481 -71q-505 0 -805 243q-342 277 -342 822q-12 246 117 491q259 492 965 492q569 -43 712 -86l-69 -453q-21 112 -109 224q-175 225 -512 225
q-407 0 -642 -237q-238 -240 -238 -660q0 -402 326 -682q301 -258 666 -258q202 -9 315 95v633z" />
    <glyph glyph-name="h" unicode="h" horiz-adv-x="1962" 
d="M1783 1859q6 83 91 144q42 31 83 45h-587q41 -14 84 -45q84 -61 90 -144v-665h-1126v665q6 83 90 144q43 31 84 45h-587q41 -14 83 -45q85 -61 91 -144v-1670q-6 -83 -91 -144q-42 -31 -83 -45h587q-41 14 -84 45q-84 61 -90 144v863h1126v-863q-6 -83 -90 -144
q-43 -31 -84 -45h587q-41 14 -83 45q-85 61 -91 144v1670z" />
    <glyph glyph-name="i" unicode="i" horiz-adv-x="597" 
d="M418 1859q6 83 90 144q43 31 84 45h-587q41 -14 83 -45q85 -61 91 -144v-1670q-6 -83 -91 -144q-42 -31 -83 -45h587q-41 14 -84 45q-84 61 -90 144v1670z" />
    <glyph glyph-name="j" unicode="j" horiz-adv-x="838" 
d="M659 1859q6 83 91 144q42 31 83 45h-587q41 -14 83 -45q85 -61 91 -144v-1494q-43 -179 -113 -239q-95 -81 -302 -38q9 -22 52 -44q88 -44 261 -44q216 -2 300 152q42 78 41 156v1551z" />
    <glyph glyph-name="k" unicode="k" 
d="M701 1159l603 591q216 249 408 298h-568q31 0 52 -13q41 -26 -11 -93l-766 -756l4 704q31 111 169 158h-587q41 -14 83 -45q85 -61 91 -144v-1670q-6 -83 -91 -144q-42 -31 -83 -45h587q-41 14 -84 45q-84 61 -91 144v692l129 126l888 -907q40 -58 -1 -82
q-21 -11 -49 -11h568q-192 48 -408 298z" />
    <glyph glyph-name="l" unicode="l" horiz-adv-x="1200" 
d="M461 1912l-7 -1707q0 145 3 1701q2 2 4 6zM557 172q-63 44 -96 88v1652q57 92 208 136h-664q166 -48 211 -142q3 -1556 3 -1701q0 -90 -89 -157q-44 -33 -89 -48h1112l42 359q-34 -68 -97 -137q-126 -137 -271 -137q-146 0 -270 87z" />
    <glyph glyph-name="m" unicode="m" horiz-adv-x="2568" 
d="M1239 41l680 1228l235 -1016v-66q-6 -82 -90 -143q-42 -30 -82 -44h580q-40 14 -82 44q-84 61 -90 143l-305 1837l-849 -1641l-824 1665l-235 -1837q-6 -83 -90 -143q-41 -31 -82 -45h581q-41 14 -83 45q-83 60 -90 143v65l141 1040l675 -1269l7 -7h1v-1z" />
    <glyph glyph-name="n" unicode="n" horiz-adv-x="2087" 
d="M1495 2048q41 -14 83 -45q85 -61 91 -144v-1375l-1490 1564v-1859q-6 -83 -91 -144q-42 -31 -83 -45h587q-41 14 -83 45q-85 61 -91 144v1356l1489 -1545v2l1 -2v1859q6 83 91 144q42 31 83 45h-587z" />
    <glyph glyph-name="o" unicode="o" horiz-adv-x="2058" 
d="M1211 1905q231 -71 378 -247q208 -249 208 -675q0 -425 -208 -654q-147 -162 -378 -211v1787zM465 1675q145 168 375 234v-1775q-230 67 -375 237q-204 240 -204 653t204 651zM1069 1936q40 -5 81 -14v-1815q-43 -5 -81 -6v1835zM968 106q-32 5 -67 12v1806q33 7 67 11
v-1829zM534 1938q-529 -249 -529 -948q0 -500 377 -773q300 -217 680 -217q350 0 647 249q343 288 343 734q0 456 -333 775q-303 289 -657 289q-264 16 -528 -109z" />
    <glyph glyph-name="p" unicode="p" horiz-adv-x="1288" 
d="M415 1017q8 643 8 802q0 109 45 128q18 8 163 8t262 -123q143 -151 143 -416q0 -243 -139 -345q-70 -51 -140 -54h-342zM1247 1359q36 111 29 183q0 396 -431 484q-215 44 -430 9h-410q41 -14 83 -45q84 -61 90 -143v-1659q-6 -83 -90 -144q-42 -30 -83 -44h583
q-41 14 -83 44q-84 61 -90 144v686q308 0 460 37q76 19 90 38q212 189 282 410z" />
    <glyph glyph-name="q" unicode="q" horiz-adv-x="2058" 
d="M1150 107q-33 -4 -81 -6l-101 5q-32 5 -67 12l-61 16q-230 67 -375 237q-204 240 -204 653t204 651q145 168 375 234l61 15q33 7 67 11l101 1q40 -5 81 -14l61 -17q231 -71 378 -247q208 -249 208 -675q0 -387 -174 -612q-177 112 -329 -40q78 -20 195 -92
q-121 -88 -278 -121zM2052 983q0 456 -333 775q-303 289 -657 289q-264 16 -528 -109q-529 -249 -529 -948q0 -500 377 -773q300 -217 680 -217q272 0 534 166q35 -26 61 -48q137 -115 225 -116q49 0 137 56q-38 4 -93 32q-110 58 -194 179q320 285 320 714z" />
    <glyph glyph-name="r" unicode="r" horiz-adv-x="1938" 
d="M415 1017q8 643 8 802q0 109 45 128q18 8 163 8t262 -123q143 -151 143 -416q0 -243 -139 -345q-70 -51 -140 -54h-342zM965 949q212 189 282 410q36 111 29 183q0 396 -431 484q-215 44 -430 9h-410q41 -14 83 -45q84 -61 90 -143v-1659q-6 -83 -90 -144
q-42 -30 -83 -44h583q-41 14 -83 44q-84 61 -90 144v686q263 0 447 -142q92 -70 131 -141q88 -148 211 -296q246 -295 418 -295t258 44q44 22 53 43q-194 -40 -428 188q-131 128 -304 383q-133 196 -236 291z" />
    <glyph glyph-name="s" unicode="s" horiz-adv-x="1050" 
d="M22 147q24 -37 78 -74q107 -73 252 -73q227 0 434 136q259 171 259 456q0 180 -152 356q-71 83 -285 258q-350 288 -350 488q0 121 85 188q89 68 257 68q153 0 246 -127q73 -102 73 -207l63 354q-11 20 -66 39q-109 39 -323 39q-246 0 -401 -136q-143 -126 -143 -304
q0 -153 113 -301q75 -100 281 -283q211 -188 287 -283q118 -149 118 -287q0 -140 -147 -238q-127 -85 -254 -85q-141 0 -250 78q-144 103 -144 300q-48 -216 -31 -362z" />
    <glyph glyph-name="t" unicode="t" horiz-adv-x="1608" 
d="M1526 2012h-1444l-77 36l77 -374q4 56 32 111q58 112 182 112h386l1 -24q1 -581 2 -1060v-624q-7 -83 -91 -144q-43 -31 -84 -45h587q-41 14 -83 45q-85 61 -91 144v624q1 479 2 1060v24h387q124 0 181 -112q29 -55 33 -111l77 374z" />
    <glyph glyph-name="u" unicode="u" horiz-adv-x="2048" 
d="M1463 2048q40 -9 80 -41q79 -66 79 -183v-867q0 -427 -131 -637q-103 -164 -298 -205l-59 -10q-32 -5 -79 -7l-98 6q-32 4 -66 11l-58 15q-423 124 -423 867l1 247l2 617q7 82 90 143q42 30 83 44h-581q33 -7 69 -33q71 -52 86 -143v-908q0 -494 297 -753
q243 -211 592 -211q322 0 559 243q264 270 264 714v907q7 81 90 141q42 29 81 43h-580z" />
    <glyph glyph-name="v" unicode="v" horiz-adv-x="2042" 
d="M1444 2048q42 -14 85 -45q85 -61 91 -144l-599 -1383l-599 1383q6 83 92 144q42 31 84 45h-593q33 -8 69 -34q73 -52 88 -144l851 -1870v18l8 -18l857 1870q16 92 89 144q37 26 70 34h-593z" />
    <glyph glyph-name="w" unicode="w" horiz-adv-x="3058" 
d="M2037 476l600 1383q-7 83 -92 144q-43 31 -84 45h592q-33 -8 -69 -34q-73 -52 -88 -144l-851 -1870v18l-8 -18l-508 1097l-508 -1097l-8 18v-18l-851 1870q-15 92 -88 144q-36 26 -69 34h593q-42 -14 -84 -45q-86 -61 -92 -144l599 -1383l385 887l123 309l124 -309z" />
    <glyph glyph-name="x" unicode="x" horiz-adv-x="1677" 
d="M974 1080l420 790q16 92 89 144q36 26 70 34h-593q42 -14 84 -45q86 -61 92 -144l-285 -556l-1 -2l-1 2l-308 556q6 83 92 144q42 31 84 45h-593q33 -8 70 -34q73 -52 89 -144l430 -807l-549 -885q-16 -92 -89 -144q-37 -26 -70 -34h593q-42 14 -84 45q-86 61 -92 145
l284 428l132 228l132 -228l285 -428q-10 -134 -128 -190h545q-34 8 -70 34q-73 52 -89 144z" />
    <glyph glyph-name="y" unicode="y" horiz-adv-x="1659" 
d="M1062 2048q42 -14 84 -45q86 -61 92 -144l-408 -691l-409 691q7 83 92 144q43 31 84 45h-592q33 -8 69 -34q73 -52 88 -144l548 -879v-802q-6 -83 -91 -144q-42 -31 -83 -45h587q-41 14 -83 45q-85 61 -91 144v811l547 870q15 92 88 144q37 26 70 34h-592z" />
    <glyph glyph-name="z" unicode="z" horiz-adv-x="1376" 
d="M1371 2048h-1280l78 -344q4 57 33 113q58 113 184 113h630l-881 -1677l-130 -253h116h1032h79l-79 344q-3 -56 -32 -113q-58 -113 -185 -113h-622l981 1786z" />
    </font>
</defs>
</svg>
